На всех торрентах на трекере установлена скидка на скачивание в размере 100 процентов(а).
 Возможность скачивания торрента НЕ зависит от ограничений при низком ратио, низком аплоаде, требуемом ратио или требуемом аплоаде.


Начать новую тему Ответить на тему
Статистика раздачи
Размер: 2.18 ГБ | Добавлен: 06 янв 2014, 23:26 | Скачали: 0
Сидеров: 0  [0 байт/сек]    Личеров: 0  [0 байт/сек]
Пред. тема | След. тема 

Автор
Сообщение

СообщениеДобавлено: 06 янв 2014, 23:26 

Матч (2012) BDRip

«Любовь и судьбу отменить невозможно...»
Русское название: Матч
Год выпуска: 2012
Производство: Россия, Украина / Рекун-синема, Централ Партнершип
Жанр: Драма, Cпорт
Язык: Русский
Навигация по главам: Есть (17)

Режиссер: Андрей Малюков
Актеры: Сергей Безруков, Елизавета Боярская, Эдуард Безродный, Екатерина Климова, Дирк Мартенс, Александр Крыжановский, Александр Кобзарь, Сергей Романович, Игорь Гнездилов, Никита Тезин

Описание фильма:
1942 год. Николай Раневич, вратарь и звезда киевского «Динамо», теряет самое дорогое — свободу, любимую девушку Анну и возможность играть в футбол. Анна спасает Николая из плена, но теперь они не могут быть вместе…

Немцы устраивают чемпионат по футболу между местными командами и сборной Вермахта. Раневич собирает друзей и вновь выходит на поле играть за свою честь, за любовь, за Родину!

Дата мировой премьеры: 3 мая 2012
Дата российской премьеры: 1 мая 2012, «Централ Партнершип»
Дата выхода DVD релиза: 28 июня 2012, «CP Дистрибуция»
Дата выхода Blu-Ray релиза: 28 июля 2012, «CP Дистрибуция»



Продолжительность: 01:57:39
Качество видео: BDRip-AVC

Видеокодек: MPEG-4 AVC/H.264
Битрейт видео: ~2206 кбит/сек
Размер кадра: 1024x554
Аудиокодек: AC3 5.1
Битрейт аудио: 448 кбит/сек
Код:
Код:
General
Unique ID                      : 170861505314080118761418557745121110669 (0x808ABA9BFDE92F94B751B29F89F2AA8D)
Complete name                  : Match.2012.BDRip-AVC.[NNM-CLUB.RU].mkv
Format                         : Matroska
Format version                 : Version 2
File size                      : 2.18 GiB
Duration                       : 1h 57mn
Overall bit rate               : 2 654 Kbps
Encoded date                   : UTC 2013-05-31 11:09:35
Writing application            : mkvmerge v3.4.0 ('Rapunzel') сборка от May 15 2010 09:38:20
Writing library                : libebml v0.8.0 + libmatroska v0.9.0

Video
ID                             : 1
Format                         : AVC
Format/Info                    : Advanced Video Codec
Format profile                 :
Format settings, CABAC         : Yes
Format settings, ReFrames      : 10 frames
Codec ID                       : V_MPEG4/ISO/AVC
Duration                       : 1h 57mn
Bit rate                       : 2 206 Kbps
Width                          : 1 024 pixels
Height                         : 554 pixels
Display aspect ratio           : 1.85:1
Frame rate mode                : Constant
Frame rate                     : 25.000 fps
Color space                    : YUV
Chroma subsampling             : 4:2:0
Bit depth                      : 8 bits
Scan type                      : Progressive
Bits/(Pixel*Frame)             : 0.156
Stream size                    : 1.77 GiB (81%)
Title                          : Match (2012)
Writing library                : x264 core 132 r2323+704+51 d571b1c tMod [8-bit@all X86]
Encoding settings              : cabac=1 / ref=10 / deblock=1:-2:-2 / analyse=0x3:0x113 / me=tesa / subme=11 / psy=1 / fade_compensate=0.00 / psy_rd=0.97:0.00 / mixed_ref=1 / me_range=48 / chroma_me=1 / trellis=2 / 8x8dct=1 / cqm=0 / deadzone=21,11 / fast_pskip=0 / chroma_qp_offset=-2 / threads=16 / lookahead_threads=4 / sliced_threads=0 / nr=0 / decimate=0 / interlaced=0 / bluray_compat=0 / constrained_intra=0 / fgo=0 / bframes=11 / b_pyramid=2 / b_adapt=2 / b_bias=0 / direct=3 / weightb=1 / open_gop=0 / weightp=2 / keyint=250 / keyint_min=25 / scenecut=40 / intra_refresh=0 / rc_lookahead=250 / rc=2pass / mbtree=0 / bitrate=2206 / ratetol=1.0 / qcomp=0.66 / qpmin=0 / qpmax=69 / qpstep=4 / cplxblur=20.0 / qblur=0.5 / vbv_maxrate=50000 / vbv_bufsize=62500 / nal_hrd=none / ip_ratio=1.40 / pb_ratio=1.30 / aq=4:0.90 / aq-sensitivity=10.00 / aq-factor=1.00:1.00:1.00 / aq2=0 / aq3=0
Language                       : Russian
Default                        : Yes
Forced                         : No

Audio
ID                             : 2
Format                         : AC-3
Format/Info                    : Audio Coding 3
Mode extension                 : CM (complete main)
Format settings, Endianness    : Big
Codec ID                       : A_AC3
Duration                       : 1h 57mn
Bit rate mode                  : Constant
Bit rate                       : 448 Kbps
Channel(s)                     : 6 channels
Channel positions              : Front: L C R, Side: L R, LFE
Sampling rate                  : 48.0 KHz
Bit depth                      : 16 bits
Compression mode               : Lossy
Stream size                    : 377 MiB (17%)
Title                          : Original
Language                       : Russian
Default                        : Yes
Forced                         : No

Menu
00:00:00.000                   : en:Chapter 01
00:08:50.480                   : en:Chapter 02
00:13:58.440                   : en:Chapter 03
00:17:52.760                   : en:Chapter 04
00:22:04.359                   : en:Chapter 05
00:30:00.520                   : en:Chapter 06
00:39:32.680                   : en:Chapter 07
00:46:36.640                   : en:Chapter 08
00:52:03.320                   : en:Chapter 09
00:58:34.640                   : en:Chapter 10
01:04:37.600                   : en:Chapter 11
01:10:23.840                   : en:Chapter 12
01:16:03.880                   : en:Chapter 13
01:25:24.640                   : en:Chapter 14
01:32:36.760                   : en:Chapter 15
01:38:47.479                   : en:Chapter 16
01:57:38.040                   : en:Chapter 17

Скриншоты:



загрузка...
Правила, инструкции, FAQ!!!
Торрент  Добавлен [06 янв 2014, 23:26] Скачать торрент
Скачать торрент
[ Размер 11.64 КБ / Просмотров 3 ]

Статус  
 
Размер  2.18 ГБ
Приватный: Нет (DHT включён)
.torrent скачан  0
Как залить торрент? | Как скачать Torrent? | Как смотреть и слушать онлайн?  


     Отправить личное сообщение
   
Страница 1 из 1
Показать сообщения за:  Поле сортировки  
Начать новую тему Ответить на тему

   Похожие торренты   Автор   Ответы   Просмотры   Последнее сообщение 
В этой теме нет новых непрочитанных сообщений. Скачать торрент Проверен Матч (2012) BDRip [576p] iPad

в форуме Фильмы для iPod, iPhone, iPad, Размер: 2.17 ГБ, Здоровье: 100%

Anonymous

0
3|1

40
0

13 сен 2015, 01:18

Anonymous Перейти к последнему сообщению

В этой теме нет новых непрочитанных сообщений. Скачать торрент Проверен Матч Поинт / Match Point (2005) BDRip 1080р | P, A

в форуме 720p | 1080p, Размер: 11.5 ГБ, Здоровье: 100%

Гость

0
31|14

50
6

01 дек 2015, 22:19

Гость Перейти к последнему сообщению

В этой теме нет новых непрочитанных сообщений. Скачать торрент Проверен [MP4 360x640] Матч (2012) DVDRip

в форуме Видео для смартфонов и КПК, Размер: 776.95 МБ, Здоровье: ???%

Anonymous

0
0|2

198
0

25 окт 2014, 23:31

Anonymous Перейти к последнему сообщению

В этой теме нет новых непрочитанных сообщений. Скачать торрент Проверен [iPad] Матч Поинт / Match Point (Вуди Аллен / Woody Allen) [2005, триллер, драма, мелодрама, BDRip, 720p]

в форуме Фильмы для iPod, iPhone, iPad, Размер: 3.23 ГБ, Здоровье: 100%

Гость

0
14|5

25
0

14 май 2015, 00:20

Гость Перейти к последнему сообщению

В этой теме нет новых непрочитанных сообщений. Скачать торрент Проверен Матч Поинт / Match Point (2005) HDRip | P2

в форуме Триллеры, Размер: 748.79 МБ, Здоровье: 100%

Anonymous

0
51|45

91
15

12 дек 2015, 21:40

Anonymous Перейти к последнему сообщению



Сейчас этот форум просматривают: нет зарегистрированных пользователей и гости: 5


Вы не можете начинать темы
Вы не можете отвечать на сообщения
Вы не можете редактировать свои сообщения
Вы не можете удалять свои сообщения
Вы не можете добавлять вложения

Перейти:  

!ВНИМАНИЕ!
 Ресурс не предоставляет электронные версии произведений, а занимается лишь коллекционированием и каталогизацией ссылок, присылаемых и публикуемых на форуме нашими читателями. Если вы являетесь правообладателем какого-либо представленного материала и не желаете чтобы ссылка на него находилась в нашем каталоге, свяжитесь с нами и мы незамедлительно удалим её. Файлы для обмена на трекере предоставлены пользователями сайта, и администрация не несёт ответственности за их содержание. Просьба не заливать файлы, защищенные авторскими правами, а также файлы нелегального содержания!