На всех торрентах на трекере установлена скидка на скачивание в размере 100 процентов(а).
 Возможность скачивания торрента НЕ зависит от ограничений при низком ратио, низком аплоаде, требуемом ратио или требуемом аплоаде.


Начать новую тему Ответить на тему
Статистика раздачи
Размер: 7.92 ГБ | Добавлен: 06 янв 2014, 20:08 | Скачали: 0
Сидеров: 0  [0 байт/сек]    Личеров: 0  [0 байт/сек]
Пред. тема | След. тема 

Автор
Сообщение

СообщениеДобавлено: 06 янв 2014, 20:08 

Чрево / Womb
«What are the consequences of giving birth to your dead boyfriend?»




Страна: Германия, Венгрия, Франция
Студия: Arte France Cinéma, Asap Films, Boje Buck Produktion GmbH, Inforg Stúdió, Razor Film Produktion GmbH, ZDF/Arte
Жанр: фантастика, драма, мелодрама
Год выпуска: 2010
Продолжительность: 01:51:53

Перевод: русский профессиональный (многоголосый, закадровый) [Лицензия, R5]
Иностранная аудиодорожка: английская
Русские субтитры: есть
Режиссер: Бенедек Флигауф / Benedek Fliegauf
В ролях: Ева Грин, Мэтт Смит, Лесли Мэнвилл, Питер Уайт, Иштван Ленар, Ханна Мюррэй, Руби О. Фи, Тристан Кристофер, Джесси Хоффманн, Наталия Тена



Недалекое будущее. Семилетние Ребекка и Томас живут в небольшом прибрежном городке и дружат с самого детства. После окончания школы семнадцатилетняя Ребекка возвращается в родной городок и у нее завязывается бурный роман с подросшим Томасом.
Спустя несколько месяцев Томас погибает в нелепой автокатастрофе. Отчаявшаяся Ребекка не находит себе места до тех пор, пока ей не приходит в голову безумная идея. В недалеком будущем вполне обыденным явлением стало клонирование людей, пусть общество и не до конца принимает это научное изобретение. Ребекка решает дать новую жизнь своему потерянному возлюбленному...
В доме на берегу моря повзрослевшая Ребекка растит обаятельного сына Томаса, который уверен, что его отец погиб в автокатастрофе. Ребекка никогда не говорит вслух о клонировании. Пока не появляется кое-кто из прошлой жизни и тайное не становится явным...


Тип релиза: BDRip 1080p (исходник: Womb 2010 GBR Blu-ray 1080p AVC DTS-HD MA 5.1)
Контейнер: MKV
Видео кодек: x264
Аудио кодек: AC3
Видео: AVC / High@L4.1 / 2 pass / 24,000 fps / 1920x816p (2,35:1) / 6,9 Mbps / 0.247
Аудио 1: AC3 / 2.0 ch / 192 kbps / Русский MVO, R5
Аудио 2: AC3 / 5.1 ch / 640 kbps / Английский original, BD GBR
Субтитры: [softsub SRT]
Русские Full, R5
Украинские Full, R5
Английские Full, BD GBR
Дополнительно: Сохранены оригинальные чаптеры (главы) как на Blu-ray


Раздача от:













x264 [info]: frame I:1006 Avg QP:16.24 size:215865
x264 [info]: frame P:29208 Avg QP:17.98 size: 98742
x264 [info]: frame B:130899 Avg QP:20.12 size: 35906

Общее
Уникальный идентификатор : 223904948138622168370428385682620592697 (0xA8728641274F61019A9923EB7CFEB239)
Полное имя : F:Скачка торрентWomb.2010.BDRip1080p(Killbrain)_[scarabey.org].mkv
Формат : Matroska
Версия формата : Version 2
Размер файла : 7,92 Гбайт
Продолжительность : 1 ч. 51 м.
Общий поток : 10,1 Мбит/сек
Название фильма : Womb (2010) by Killbrain
Дата кодирования : UTC 2014-01-06 15:38:37
Программа кодирования : mkvmerge v5.8.0 ('No Sleep / Pillow') built on Sep 2 2012 15:37:04
Библиотека кодирования : libebml v1.2.3 + libmatroska v1.3.0

Видео
Идентификатор : 1
Формат : AVC
Формат/Информация : Advanced Video Codec
Профиль формата : High@L4.1
Параметр CABAC формата : Да
Параметр ReFrames формата : 4 кадра
Идентификатор кодека : V_MPEG4/ISO/AVC
Продолжительность : 1 ч. 51 м.
Битрейт : 9300 Кбит/сек
Ширина : 1920 пикселей
Высота : 816 пикселей
Соотношение сторон : 2,35:1
Режим частоты кадров : Постоянный
Частота кадров : 24,000 кадра/сек
Цветовое пространство : YUV
Субдискретизация насыщенности : 4:2:0
Битовая глубина : 8 бит
Тип развёртки : Прогрессивная
Бит/(Пиксели*Кадры) : 0.247
Размер потока : 7,11 Гбайт (90%)
Заголовок : Womb (2010)
Библиотека кодирования : x264 core 138 r2358 9e941d1
Настройки программы : cabac=1 / ref=4 / deblock=1:-3:-3 / analyse=0x3:0x113 / me=umh / subme=10 / psy=1 / psy_rd=1.00:0.15 / mixed_ref=1 / me_range=32 / chroma_me=1 / trellis=2 / 8x8dct=1 / cqm=0 / deadzone=21,11 / fast_pskip=0 / chroma_qp_offset=-3 / threads=3 / lookahead_threads=1 / sliced_threads=0 / nr=0 / decimate=0 / interlaced=0 / bluray_compat=0 / constrained_intra=0 / bframes=6 / b_pyramid=2 / b_adapt=2 / b_bias=0 / direct=3 / weightb=1 / open_gop=0 / weightp=2 / keyint=240 / keyint_min=24 / scenecut=40 / intra_refresh=0 / rc_lookahead=60 / rc=2pass / mbtree=0 / bitrate=9300 / ratetol=1.0 / qcomp=0.65 / qpmin=0 / qpmax=69 / qpstep=4 / cplxblur=20.0 / qblur=0.5 / vbv_maxrate=40000 / vbv_bufsize=30000 / nal_hrd=none / ip_ratio=1.40 / pb_ratio=1.30 / aq=1:0.80
Язык : German
Default : Да
Forced : Нет

Аудио #1
Идентификатор : 2
Формат : AC-3
Формат/Информация : Audio Coding 3
Расширение режима : CM (complete main)
Параметр Endianness формата : Big
Идентификатор кодека : A_AC3
Продолжительность : 1 ч. 51 м.
Вид битрейта : Постоянный
Битрейт : 192 Кбит/сек
Каналы : 2 канала
Расположение каналов : Front: L R
Частота : 48,0 КГц
Битовая глубина : 16 бит
Метод сжатия : С потерями
Размер потока : 154 Мбайт (2%)
Заголовок : AC3 / 2.0 ch / 192 kbps / Русский MVO, R5
Язык : Russian
Default : Да
Forced : Нет

Аудио #2
Идентификатор : 3
Формат : AC-3
Формат/Информация : Audio Coding 3
Расширение режима : CM (complete main)
Параметр Endianness формата : Big
Идентификатор кодека : A_AC3
Продолжительность : 1 ч. 51 м.
Вид битрейта : Постоянный
Битрейт : 640 Кбит/сек
Каналы : 6 каналов
Расположение каналов : Front: L C R, Side: L R, LFE
Частота : 48,0 КГц
Битовая глубина : 16 бит
Метод сжатия : С потерями
Размер потока : 512 Мбайт (6%)
Заголовок : AC3 / 5.1 ch / 640 kbps / Английский original, BD GBR
Язык : English
Default : Нет
Forced : Нет

Текст #1
Идентификатор : 4
Формат : UTF-8
Идентификатор кодека : S_TEXT/UTF8
Идентификатор кодека/Информация : UTF-8 Plain Text
Заголовок : Full, R5
Язык : Russian
Default : Нет
Forced : Нет

Текст #2
Идентификатор : 5
Формат : UTF-8
Идентификатор кодека : S_TEXT/UTF8
Идентификатор кодека/Информация : UTF-8 Plain Text
Заголовок : Full, R5
Язык : Ukrainian
Default : Нет
Forced : Нет

Текст #3
Идентификатор : 6
Формат : UTF-8
Идентификатор кодека : S_TEXT/UTF8
Идентификатор кодека/Информация : UTF-8 Plain Text
Заголовок : Full, BD GBR
Язык : English
Default : Нет
Forced : Нет

Меню
00:00:00.000 : :Introductions
00:10:03.603 : :72nd Floor
00:22:46.365 : :Looking For Thomas
00:35:22.120 : :You Go, I Go
00:46:35.793 : :Expecting
00:55:02.299 : :Daddy
00:59:20.557 : :Celebrations
01:07:35.051 : :Booboo
01:13:31.407 : :No Two Alike
01:22:04.920 : :Stranger
01:38:15.890 : :Identity
01:48:24.498 : :End Credits




загрузка...
Правила, инструкции, FAQ!!!
Торрент  Добавлен [06 янв 2014, 20:08] Скачать торрент
Скачать торрент
[ Размер 20.4 КБ / Просмотров 7 ]

Статус  
 
Размер  7.92 ГБ
Приватный: Нет (DHT включён)
.torrent скачан  0
Как залить торрент? | Как скачать Torrent? | Как смотреть и слушать онлайн?  


     Отправить личное сообщение
   
Страница 1 из 1
Показать сообщения за:  Поле сортировки  
Начать новую тему Ответить на тему

   Похожие торренты   Автор   Ответы   Просмотры   Последнее сообщение 
В этой теме нет новых непрочитанных сообщений. Скачать торрент Проверен (Noise Rock, Grunge, Punk, AmRep) [LP] [16/44] God Bullies ‎(They Never Sleep, Thrall) – Mama Womb Womb - 1989, FLAC (tracks)

в форуме Зарубежный рок (оцифровки), Размер: 256.64 МБ, Здоровье: 0%

Anonymous

0
0|0

1
0

27 авг 2016, 08:50

Anonymous Перейти к последнему сообщению

В этой теме нет новых непрочитанных сообщений. Скачать торрент Проверен (Psychedelic Rock, Space Rock) King Black Acid and The Womb Star Orchestra - Womb Star Session - 1995 (Cavity Search [CSR 28]), FLAC (tracks+.cue) lossless

в форуме Progressive & Art-Rock, Размер: 311.74 МБ, Здоровье: 0%

Anonymous

0
0|0

0
0

31 авг 2016, 21:30

Anonymous Перейти к последнему сообщению

В этой теме нет новых непрочитанных сообщений. Скачать торрент 10 000 лет до н.э. / 10,000 BC (2008) BDRip 1080p | Лицензия

в форуме 720p | 1080p, Размер: 6.71 ГБ, Здоровье: 0%

Anonymous

0
0|0

111
0

09 фев 2014, 21:02

Anonymous Перейти к последнему сообщению

В этой теме нет новых непрочитанных сообщений. Скачать торрент Проверен Василиса (2014) BDRip 1080p | Лицензия

в форуме 720p | 1080p, Размер: 10.02 ГБ, Здоровье: 17%

Гость

0
12|70

59
13

31 янв 2015, 13:06

Гость Перейти к последнему сообщению

В этой теме нет новых непрочитанных сообщений. Скачать торрент Владение 18 (2013) BDRip 1080p | Лицензия

в форуме 720p | 1080p, Размер: 7.01 ГБ, Здоровье: 100%

Anonymous

0
28|1

37
351

12 апр 2014, 13:52

Anonymous Перейти к последнему сообщению



Сейчас этот форум просматривают: нет зарегистрированных пользователей и гости: 3


Вы не можете начинать темы
Вы не можете отвечать на сообщения
Вы не можете редактировать свои сообщения
Вы не можете удалять свои сообщения
Вы не можете добавлять вложения

Перейти:  

!ВНИМАНИЕ!
 Ресурс не предоставляет электронные версии произведений, а занимается лишь коллекционированием и каталогизацией ссылок, присылаемых и публикуемых на форуме нашими читателями. Если вы являетесь правообладателем какого-либо представленного материала и не желаете чтобы ссылка на него находилась в нашем каталоге, свяжитесь с нами и мы незамедлительно удалим её. Файлы для обмена на трекере предоставлены пользователями сайта, и администрация не несёт ответственности за их содержание. Просьба не заливать файлы, защищенные авторскими правами, а также файлы нелегального содержания!