На всех торрентах на трекере установлена скидка на скачивание в размере 100 процентов(а).
 Возможность скачивания торрента НЕ зависит от ограничений при низком ратио, низком аплоаде, требуемом ратио или требуемом аплоаде.


Начать новую тему Ответить на тему
Статистика раздачи
Размер: 2.05 ГБ | Добавлен: 06 янв 2014, 10:56 | Скачали: 0
Сидеров: 0  [0 байт/сек]    Личеров: 0  [0 байт/сек]
Пред. тема | След. тема 

Автор
Сообщение

СообщениеДобавлено: 06 янв 2014, 10:56 

Название: Легион
Оригинальное название: Casshern
Год выхода: 2004
Жанр: фантастика, боевик
Режиссер: Казуаки Кирия

В ролях: Юсуке Исейа, Кумико Асо, Акира Тэрао, Канако Хигучи, Фумиё Кохината, Хироюки Миясако, Маюми Сэда, Джан Канаме, Хидэтоси Нисидзима, Митсухиро Оикава, Сусуму Тэрадзима, Маю Тсурута, Рио, Тетсуджи Тамаяма, Ёуко Моригучи, Хидэдзи Отаки, Татсуя Михаши, Тошиаки Карасава, Кохэй Китаяма, Еи Морисако, Горо Ная, Сатоши Шиоми...

О фильме: В далеком будущем Азия стала центром мировой экономики. Полицейские оккупационные власти руководят странами Евразии, жестоко подавляя любые попытки сопротивления. На далеких фронтах не утихает война, природные ресурсы на исходе, и даже в мирных городах Японии лютуют страшные болезни.

В связи с возрастающим уровнем смертности населения, правительство решает одобрить новый проект доктора Азумы, лучшего специалиста в области генной инженерии. Суть эксперимента предельно проста — выращивать любые человеческие органы и части тел, и пересаживать их людям в случае надобности. Но проект завершается неудачей — выращенные Азумой тела оживают! Армия клонов развязывает войну против своих же создателей. У человечества остается лишь одна надежда на спасение: Тэтсио — сын доктора Азумы.

Погибший на войне, и вернувшийся к жизни благодаря эксперименту отца, Тэтсио наделен необычайной силой, а его тело заключено в особый сверхпрочный скафандр, что делает его практически неуязвимым…



Страна: Япония
Продолжительность: 02:22:19
Перевод: Профессиональный (двухголосый закадровый)


Кодек: x.264
Качество: BDRip-AVC
Видео: 928x384 (2,40:1), 23.976 fps, 1680 kbps, 0.197 bit/pixel
Звук: 48 kHz, AC3 Dolby Digital, 6 ch, ~384.00 kbps
Субтитры: Русские (отключаемые)

&

Общее
Уникальный идентификатор : 245947833753553017428470408872384576562 (0xB907D46C5A023365BFBC40DF9E7CBC32)
Полное имя : D:Casshern.2004.BDRip-AVC.mkv
Формат : Matroska
Версия формата : Version 4 / Version 2
Размер файла : 2,05 Гбайт
Продолжительность : 2 ч. 22 м.
Общий поток : 2063 Кбит/сек
Название фильма : Легион / Casshern (2004) BDRip-AVC rip by Rulya74
Дата кодирования : UTC 2014-01-06 06:45:13
Программа кодирования : mkvmerge v6.5.0 ('Isn't she lovely') built on Oct 20 2013 12:50:05
Библиотека кодирования : libebml v1.3.0 + libmatroska v1.4.1

Видео
Идентификатор : 1
Формат : AVC
Формат/Информация : Advanced Video Codec
Профиль формата : High@L4.1
Параметр CABAC формата : Да
Параметр ReFrames формата : 12 кадров
Идентификатор кодека : V_MPEG4/ISO/AVC
Продолжительность : 2 ч. 22 м.
Битрейт : 1680 Кбит/сек
Ширина : 928 пикселей
Высота : 384 пикселя
Соотношение сторон : 2,40:1
Режим частоты кадров : Постоянный
Частота кадров : 23,976 кадра/сек
Цветовое пространство : YUV
Субдискретизация насыщенности : 4:2:0
Битовая глубина : 8 бит
Тип развёртки : Прогрессивная
Бит/(Пиксели*Кадры) : 0.197
Размер потока : 1,63 Гбайт (79%)
Библиотека кодирования : x264 core 138 r2358 9e941d1
Настройки программы : cabac=1 / ref=12 / deblock=1:-3:-3 / analyse=0x3:0x112 / me=umh / subme=11 / psy=1 / psy_rd=1.00:0.00 / mixed_ref=1 / me_range=48 / chroma_me=1 / trellis=2 / 8x8dct=1 / cqm=0 / deadzone=21,11 / fast_pskip=0 / chroma_qp_offset=-2 / threads=8 / lookahead_threads=1 / sliced_threads=0 / nr=0 / decimate=1 / interlaced=0 / bluray_compat=0 / constrained_intra=0 / bframes=9 / b_pyramid=2 / b_adapt=1 / b_bias=0 / direct=3 / weightb=1 / open_gop=0 / weightp=2 / keyint=240 / keyint_min=23 / scenecut=40 / intra_refresh=0 / rc_lookahead=40 / rc=2pass / mbtree=1 / bitrate=1680 / ratetol=1.0 / qcomp=0.60 / qpmin=0 / qpmax=69 / qpstep=4 / cplxblur=20.0 / qblur=0.5 / vbv_maxrate=62500 / vbv_bufsize=78125 / nal_hrd=none / ip_ratio=1.40 / aq=1:1.00
Default : Да
Forced : Нет

Аудио
Идентификатор : 2
Формат : AC-3
Формат/Информация : Audio Coding 3
Расширение режима : CM (complete main)
Параметр Endianness формата : Big
Идентификатор кодека : A_AC3
Продолжительность : 2 ч. 22 м.
Вид битрейта : Постоянный
Битрейт : 384 Кбит/сек
Каналы : 6 каналов
Расположение каналов : Front: L C R, Side: L R, LFE
Частота : 48,0 КГц
Битовая глубина : 16 бит
Метод сжатия : С потерями
Размер потока : 391 Мбайт (19%)
Заголовок : Профессиональный (двухголосый закадровый)
Язык : Russian
Default : Да
Forced : Нет

Текст
Идентификатор : 3
Формат : UTF-8
Идентификатор кодека : S_TEXT/UTF8
Идентификатор кодека/Информация : UTF-8 Plain Text
Язык : Russian
Default : Нет
Forced : Нет


загрузка...
Правила, инструкции, FAQ!!!
Торрент  Добавлен [06 янв 2014, 10:56] Скачать торрент
Скачать торрент
[ Размер 10.67 КБ / Просмотров 4 ]

Статус  
 
Размер  2.05 ГБ
Приватный: Нет (DHT включён)
.torrent скачан  0
Как залить торрент? | Как скачать Torrent? | Как смотреть и слушать онлайн?  


     Отправить личное сообщение
   
Страница 1 из 1
Показать сообщения за:  Поле сортировки  
Начать новую тему Ответить на тему

   Похожие торренты   Автор   Ответы   Просмотры   Последнее сообщение 
В этой теме нет новых непрочитанных сообщений. Скачать торрент Проверен Легион / Legion (2010) BDRip 720p

в форуме 720p | 1080p, Размер: 5.36 ГБ, Здоровье: 100%

Anonymous

0
11|0

41
330

30 май 2014, 14:00

Anonymous Перейти к последнему сообщению

В этой теме нет новых непрочитанных сообщений. Скачать торрент Денис Юрин | Серия "Одиннадцатый легион" [11 книг] (2004-2012) [FB2]

в форуме Фантастика, фэнтези, Размер: 17.35 МБ, Здоровье: 100%

Anonymous

0
31|4

73
3

11 апр 2014, 23:52

Anonymous Перейти к последнему сообщению

В этой теме нет новых непрочитанных сообщений. Скачать торрент Последний легион / The Last Legion (Даг Лефлер / Doug Lefler) [2007, Франция, Великобритания, Италия, Тунис, фэнтези, боевик, приключения, военный, BDRip-AVC] Dub + Original (Eng) + Sub (Rus, Eng)

в форуме 720p | 1080p, Размер: 3.84 ГБ, Здоровье: 100%

Anonymous

0
11|4

39
0

06 фев 2014, 11:43

Anonymous Перейти к последнему сообщению

В этой теме нет новых непрочитанных сообщений. Скачать торрент Проверен Виктор Северов | Девятый легион (2015) [FB2]

в форуме Фантастика, фэнтези, Размер: 1.98 МБ, Здоровье: 100%

Anonymous

0
15|1

81
5

20 дек 2015, 19:12

Anonymous Перейти к последнему сообщению

В этой теме нет новых непрочитанных сообщений. Скачать торрент Проверен Легион. Книжная серия в 6 томах [1993] [FB2]

в форуме Многоавторские сборники, Размер: 14.16 МБ, Здоровье: 100%

Anonymous

0
87|51

90
5

18 авг 2014, 14:20

Anonymous Перейти к последнему сообщению



Сейчас этот форум просматривают: нет зарегистрированных пользователей и гости: 3


Вы не можете начинать темы
Вы не можете отвечать на сообщения
Вы не можете редактировать свои сообщения
Вы не можете удалять свои сообщения
Вы не можете добавлять вложения

Перейти:  

!ВНИМАНИЕ!
 Ресурс не предоставляет электронные версии произведений, а занимается лишь коллекционированием и каталогизацией ссылок, присылаемых и публикуемых на форуме нашими читателями. Если вы являетесь правообладателем какого-либо представленного материала и не желаете чтобы ссылка на него находилась в нашем каталоге, свяжитесь с нами и мы незамедлительно удалим её. Файлы для обмена на трекере предоставлены пользователями сайта, и администрация не несёт ответственности за их содержание. Просьба не заливать файлы, защищенные авторскими правами, а также файлы нелегального содержания!