На всех торрентах на трекере установлена скидка на скачивание в размере 100 процентов(а).
 Возможность скачивания торрента НЕ зависит от ограничений при низком ратио, низком аплоаде, требуемом ратио или требуемом аплоаде.


Начать новую тему Ответить на тему
Статистика раздачи
Размер: 4.67 ГБ | Добавлен: 06 янв 2014, 00:32 | Скачали: 0
Сидеров: 0  [0 байт/сек]    Личеров: 0  [0 байт/сек]
Пред. тема | След. тема 

Автор
Сообщение

СообщениеДобавлено: 06 янв 2014, 00:32 

Название: Дом Покера
Оригинальное название: The Poker House
Год выхода: 2008
Жанр: драма
Режиссер: Лори Петти

В ролях: Дженнифер Лоуренс, Джейвон Джонсон, Букем Вудбайн, Клои Грэйс Моретц, Мэттью Гердиш, Роберт Гердиш, Кимберли Меллен, Эндрю Ротенберг, Даниэль Кэмпбелл, Селма Блэр, Джейс Райан, Эбби Фален, Натали Уэст, Дэвид Алан Грир, Джеймс Эрл Джонс II, Рич Коменич, Фил Ридарелли, Хашим Браун, Кевин Гудал, Берни Лэндис, Ди’Шон Вашингтон, Адам МакЭвен, Джастин МакЭвен, Дэвид Помпейи, Эллис Фостер, Клаудия Мишель Уоллес, Грег Холлимон

О фильме:
В этой картине повествуется о тяжелой жизни детей, лишенных родительской опеки, которая вроде и есть, но такая, что лучше бы ее не было совсем. Мать пытается уложить под своего же сутенера старшую дочь, мотивируя это ее юным возрастом и большими долгами. Средняя дочь завела дружбу с местными бомжами и человеком, занимающимися приемом стеклотары. Он разрешает ей утром зайти первой и, в обмен на бутылки, набрать побольше конфет. Младшая проводит время в семье своей подруги, где и без нее уже есть шестеро детей. Но все равно дети и в таких условиях сохраняют чистую голову и добрые сердца. История, основанная на реальных событиях, происходивших с режиссёром Лори Петти в 1976 году.



Выпущено: США
Продолжительность: 01:48:54
Озвучивание: Авторское (одноголосое) [М.Чадов]


Формат: MKV
Качество: BDRip 720p [MELiTE]
Видео: 5213 kb/s, 1280x720
Аудио: Russian: AC3, 448 kb/s (6 ch) / English: DTS, 1510 kb/s (6 ch)
Субтитры: Russian [AlxKR], English
Дополнительно: Сохранены оригинальные чаптеры как на Blu-ray

Скачать: Сэмпл

Релиз группы:



General
The.Poker.House.2008.BDRip.720p.CINEMANIA.mkv
Format : Matroska
Format version : Version 4 / Version 2
File size : 4.67 GiB
Duration : 1h 33mn
Overall bit rate : 7 168 Kbps
Movie name : Release Group CINEMANIA
Encoded date : UTC 2013-11-28 20:39:56
Writing application : mkvmerge v6.5.0 ('Isn't she lovely') built on Oct 20 2013 12:50:05
Writing library : libebml v1.3.0 + libmatroska v1.4.1

Video
ID : 1
Format : AVC
Format/Info : Advanced Video Codec
Format profile : High@L4.1
Format settings, CABAC : Yes
Format settings, ReFrames : 5 frames
Codec ID : V_MPEG4/ISO/AVC
Duration : 1h 33mn
Bit rate : 5 213 Kbps
Width : 1 280 pixels
Height : 720 pixels
Display aspect ratio : 16:9
Frame rate mode : Constant
Frame rate : 23.976 fps
Color space : YUV
Chroma subsampling : 4:2:0
Bit depth : 8 bits
Scan type : Progressive
Bits/(Pixel*Frame) : 0.236
Stream size : 3.30 GiB (71%)
Title : Release Group CINEMANIA
Writing library : x264 core 138 r2358 9e941d1
Encoding settings : cabac=1 / ref=5 / deblock=1:0:0 / analyse=0x3:0x113 / me=umh / subme=7 / psy=1 / psy_rd=1.00:0.00 / mixed_ref=1 / me_range=16 / chroma_me=1 / trellis=1 / 8x8dct=1 / cqm=0 / deadzone=21,11 / fast_pskip=0 / chroma_qp_offset=-2 / threads=18 / lookahead_threads=3 / sliced_threads=0 / nr=0 / decimate=1 / interlaced=0 / bluray_compat=0 / constrained_intra=0 / bframes=3 / b_pyramid=2 / b_adapt=1 / b_bias=0 / direct=1 / weightb=1 / open_gop=0 / weightp=2 / keyint=250 / keyint_min=23 / scenecut=40 / intra_refresh=0 / rc_lookahead=40 / rc=2pass / mbtree=1 / bitrate=5213 / ratetol=1.0 / qcomp=0.60 / qpmin=0 / qpmax=69 / qpstep=4 / cplxblur=20.0 / qblur=0.5 / ip_ratio=1.40 / aq=1:1.00
Language : English
Default : Yes
Forced : No

Audio #1
ID : 2
Format : AC-3
Format/Info : Audio Coding 3
Mode extension : CM (complete main)
Format settings, Endianness : Big
Codec ID : A_AC3
Duration : 1h 33mn
Bit rate mode : Constant
Bit rate : 448 Kbps
Channel(s) : 6 channels
Channel positions : Front: L C R, Side: L R, LFE
Sampling rate : 48.0 KHz
Bit depth : 16 bits
Compression mode : Lossy
Stream size : 299 MiB (6%)
Title : М.Чадов
Language : Russian
Default : Yes
Forced : Yes

Audio #2
ID : 3
Format : DTS
Format/Info : Digital Theater Systems
Mode : 16
Format settings, Endianness : Big
Codec ID : A_DTS
Duration : 1h 33mn
Bit rate mode : Constant
Bit rate : 1 509 Kbps
Channel(s) : 6 channels
Channel positions : Front: L C R, Side: L R, LFE
Sampling rate : 48.0 KHz
Bit depth : 24 bits
Compression mode : Lossy
Stream size : 1 006 MiB (21%)
Language : English
Default : No
Forced : No

Text #1
ID : 4
Format : UTF-8
Codec ID : S_TEXT/UTF8
Codec ID/Info : UTF-8 Plain Text
Title : AlxKR
Language : Russian
Default : No
Forced : No

Text #2
ID : 5
Format : UTF-8
Codec ID : S_TEXT/UTF8
Codec ID/Info : UTF-8 Plain Text
Language : English
Default : No
Forced : No

Menu
00:00:00.000 : en:00:00:00.000
00:07:25.028 : en:00:07:25.028
00:15:22.505 : en:00:15:22.505
00:23:13.350 : en:00:23:13.350
00:30:16.481 : en:00:30:16.481
00:39:02.131 : en:00:39:02.131
00:46:20.778 : en:00:46:20.778
00:50:42.206 : en:00:50:42.206
00:58:29.214 : en:00:58:29.214
01:06:12.635 : en:01:06:12.635
01:15:52.506 : en:01:15:52.506
01:21:59.289 : en:01:21:59.289

загрузка...
Правила, инструкции, FAQ!!!
Торрент  Добавлен [06 янв 2014, 00:32] Скачать торрент
Скачать торрент
[ Размер 23.81 КБ / Просмотров 4 ]

Статус  
 
Размер  4.67 ГБ
Приватный: Нет (DHT включён)
.torrent скачан  0
Как залить торрент? | Как скачать Torrent? | Как смотреть и слушать онлайн?  


     Отправить личное сообщение
   
Страница 1 из 1
Показать сообщения за:  Поле сортировки  
Начать новую тему Ответить на тему

   Похожие торренты   Автор   Ответы   Просмотры   Последнее сообщение 
В этой теме нет новых непрочитанных сообщений. Скачать торрент Дом покера / The Poker House (2008) BDRip-AVC | A

в форуме 720p | 1080p, Размер: 2.18 ГБ, Здоровье: 100%

Anonymous

0
3|0

20
1

28 дек 2013, 15:55

Anonymous Перейти к последнему сообщению

В этой теме нет новых непрочитанных сообщений. Скачать торрент Проверен Ночь покера / Poker Night (2014) WEB-DLRip | L1

в форуме Боевики, Размер: 1.46 ГБ, Здоровье: 100%

Anonymous

0
1373|210

79
9197

17 янв 2015, 09:40

Anonymous Перейти к последнему сообщению

В этой теме нет новых непрочитанных сообщений. Скачать торрент Проверен Дом у озера / The Lake House (2006) BDRip 720p

в форуме 720p | 1080p, Размер: 2.87 ГБ, Здоровье: 100%

Гость

0
358|35

33
654

02 янв 2015, 15:41

Гость Перейти к последнему сообщению

В этой теме нет новых непрочитанных сообщений. Скачать торрент Кот Гром и заколдованный дом / The House of Magic (2013) BDRip [720p] [Line]

в форуме Зарубежные мультфильмы (HD Video), Размер: 3.64 ГБ, Здоровье: 0%

Anonymous

0
0|0

90
1

17 май 2014, 06:18

Anonymous Перейти к последнему сообщению

В этой теме нет новых непрочитанных сообщений. Скачать торрент Проверен Дом с паранормальными явлениями 2 / A Haunted House 2 (2014) BDRip 720p | Чистый звук

в форуме 720p | 1080p, Размер: 2.44 ГБ, Здоровье: 100%

Anonymous

0
154|7

34
4346

03 авг 2014, 08:58

Anonymous Перейти к последнему сообщению



Сейчас этот форум просматривают: нет зарегистрированных пользователей и гости: 4


Вы не можете начинать темы
Вы не можете отвечать на сообщения
Вы не можете редактировать свои сообщения
Вы не можете удалять свои сообщения
Вы не можете добавлять вложения

Перейти:  

!ВНИМАНИЕ!
 Ресурс не предоставляет электронные версии произведений, а занимается лишь коллекционированием и каталогизацией ссылок, присылаемых и публикуемых на форуме нашими читателями. Если вы являетесь правообладателем какого-либо представленного материала и не желаете чтобы ссылка на него находилась в нашем каталоге, свяжитесь с нами и мы незамедлительно удалим её. Файлы для обмена на трекере предоставлены пользователями сайта, и администрация не несёт ответственности за их содержание. Просьба не заливать файлы, защищенные авторскими правами, а также файлы нелегального содержания!