На всех торрентах на трекере установлена скидка на скачивание в размере 100 процентов(а).
 Возможность скачивания торрента НЕ зависит от ограничений при низком ратио, низком аплоаде, требуемом ратио или требуемом аплоаде.


Начать новую тему Ответить на тему
Статистика раздачи
Размер: 8.29 ГБ | Добавлен: 05 янв 2014, 22:19 | Скачали: 0
Сидеров: 0  [0 байт/сек]    Личеров: 0  [0 байт/сек]
Пред. тема | След. тема 

Автор
Сообщение

СообщениеДобавлено: 05 янв 2014, 22:19 

Название: Эквилибриум
Оригинальное название: Equilibrium
Год выхода: 2002
Жанр: фантастика, боевик, триллер, драма
Режиссер: Курт Уиммер

В ролях: Кристиан Бэйл, Шон Бин, Эмили Уотсон, Тэй Диггз, Энгус Макфадьен, Шон Пертуи, Уильям Фихтнер, Джон Кеог, Дэвид Барраш, Дирк Мартенс, Кристиан Карманн, Мэттью Харбор, Эмили Сьеверт, Доминик Пёрселл, Майк Смит, Флориан Фитц, Дэнни Ли Кларк, Франческо Кабрас, Курт Уиммер, Анатоль Таубман, Брайан Конли, Алекса Саммер, Брайан В. Кук, Мехмет Куртулус, Дэвид Хеммингс, Клаус Шиндл

О фильме:
Действие происходит в будущем, когда люди лишены возможности выражать какие-то эмоции, потому, что они запрещены. Это — та цена, которую человечество платит за устранение из своей жизни войны. Теперь книги, искусство и музыка находятся вне закона. А любое чувство уже преступление, наказуемое смертью. Для проведения в жизнь существующего правила используется принудительное применение лекарства «прозиум». Правительственный агент Джон Престон борется с теми, кто нарушает правила. В один прекрасный момент он забывает принять очередную дозу лекарства и с ним происходит духовное превращение, что приводит его к противоречию с самим собой и с начальством.



Страна: США
Студия: Blue Tulip, Dimension Films
Продолжительность: 01:46:50
Перевод: Дублированный, профессиональный (многоголосый закадровый), авторский (одноголосый закадровый)


Кодек: h.264
Качество: BDRip 720p
Видео: 6813 Кбит/с, 1280x720, 23.976 кадр/с

Звук:
• №1: Русский (AC3, 6 ch, 640 Кбит/с) Дублированный [Мосфильм-Мастер по заказу компании WEST]
• №2: Русский (AC3, 6 ch, 448 Кбит/с) Профессиональный многоголосый [Киномания]
• №3: Русский (AC3, 6 ch, 640 Кбит/с) Авторский одноголосый [Юрий Живов]
• №4: Русский (AC3, 6 ch, 640 Кбит/с) Авторский одноголосый [Владимир Королев]
• №5: Русский (AC3, 6 ch, 448 Кбит/с) Авторский одноголосый [Дмитрий Строев]
• №6: Русский (AC3, 6 ch, 640 Кбит/с) Авторский одноголосый [Евгений Рудой]
• №7: Украинский (AC3, 2 ch, 192 Кбит/с) Профессиональный многоголосый
• №8: Английский (AC3, 6 ch, 640 Кбит/с)

Субтитры: Русские, английские

-------------------------------------------------------------------------
x264 [info]: frame I:1297 Avg QP:15.87 size:118330
x264 [info]: frame P:32519 Avg QP:17.81 size: 57646
x264 [info]: frame B:119881 Avg QP:19.31 size: 28628
-------------------------------------------------------------------------

Полное имя : Equilibrium.-Open.Matte-.2002.x264.BDRip.(720p).0ptimus.mkv
Формат : Matroska
Версия формата : Version 4 / Version 2
Размер файла : 8,29 Гбайт
Продолжительность : 1 ч. 47 м.
Общий поток : 11,1 Мбит/сек
Название фильма : Эквилибриум | Equilibrium [2002] )pen Matte -=BDRip (720p) by 0ptimus=-
Дата кодирования : UTC 2014-01-03 09:31:21
Программа кодирования : mkvmerge v6.6.0 ('The Edge Of The In Between') built on Dec 1 2013 17:55:00
Библиотека кодирования : libebml v1.3.0 + libmatroska v1.4.1

Видео
Идентификатор : 1
Формат : AVC
Формат/Информация : Advanced Video Codec
Профиль формата : High@L4.1
Параметр CABAC формата : Да
Параметр ReFrames формата : 8 кадров
Идентификатор кодека : V_MPEG4/ISO/AVC
Продолжительность : 1 ч. 47 м.
Битрейт : 6813 Кбит/сек
Ширина : 1280 пикселей
Высота : 720 пикселей
Соотношение сторон : 16:9
Частота кадров : 23,976 кадра/сек
Цветовое пространство : YUV
Субдискретизация насыщенности : 4:2:0
Битовая глубина : 8 бит
Тип развёртки : Прогрессивная
Бит/(Пиксели*Кадры) : 0.308
Размер потока : 4,92 Гбайт (59%)
Заголовок : Rip by 0ptimus
Библиотека кодирования : x264 core 133 r2334 a3ac64b
Настройки программы : cabac=1 / ref=8 / deblock=1:-3:-3 / analyse=0x3:0x113 / me=umh / subme=11 / psy=1 / psy_rd=1.00:0.20 / mixed_ref=1 / me_range=48 / chroma_me=1 / trellis=2 / 8x8dct=1 / cqm=0 / deadzone=21,11 / fast_pskip=0 / chroma_qp_offset=-3 / threads=4 / lookahead_threads=1 / sliced_threads=0 / nr=0 / decimate=0 / interlaced=0 / bluray_compat=0 / constrained_intra=0 / bframes=11 / b_pyramid=2 / b_adapt=2 / b_bias=0 / direct=3 / weightb=1 / open_gop=0 / weightp=2 / keyint=240 / keyint_min=23 / scenecut=40 / intra_refresh=0 / rc_lookahead=40 / rc=2pass / mbtree=0 / bitrate=6813 / ratetol=1.0 / qcomp=0.60 / qpmin=0 / qpmax=69 / qpstep=4 / cplxblur=20.0 / qblur=0.5 / vbv_maxrate=50000 / vbv_bufsize=50000 / nal_hrd=none / ip_ratio=1.40 / pb_ratio=1.30 / aq=1:1.00
Язык : English

Аудио #1
Идентификатор : 2
Формат : AC-3
Формат/Информация : Audio Coding 3
Расширение режима : CM (complete main)
Идентификатор кодека : A_AC3
Продолжительность : 1 ч. 47 м.
Вид битрейта : Постоянный
Битрейт : 640 Кбит/сек
Каналы : 6 каналов
Расположение каналов : Front: L C R, Side: L R, LFE
Частота : 48,0 КГц
Битовая глубина : 16 бит
Метод сжатия : С потерями
Размер потока : 490 Мбайт (6%)
Заголовок : Дублированный [Мосфильм-Мастер по заказу компании WEST] AC3 5.1 640 kbps
Язык : Russian

Аудио #2
Идентификатор : 3
Формат : AC-3
Формат/Информация : Audio Coding 3
Расширение режима : CM (complete main)
Идентификатор кодека : A_AC3
Продолжительность : 1 ч. 47 м.
Вид битрейта : Постоянный
Битрейт : 448 Кбит/сек
Каналы : 6 каналов
Расположение каналов : Front: L C R, Side: L R, LFE
Частота : 48,0 КГц
Битовая глубина : 16 бит
Метод сжатия : С потерями
Размер потока : 343 Мбайт (4%)
Заголовок : Многоголосый закадровый [Киномания] AC3 5.1 448 kbps
Язык : Russian

Аудио #3
Идентификатор : 4
Формат : AC-3
Формат/Информация : Audio Coding 3
Расширение режима : CM (complete main)
Идентификатор кодека : A_AC3
Продолжительность : 1 ч. 47 м.
Вид битрейта : Постоянный
Битрейт : 640 Кбит/сек
Каналы : 6 каналов
Расположение каналов : Front: L C R, Side: L R, LFE
Частота : 48,0 КГц
Битовая глубина : 16 бит
Метод сжатия : С потерями
Размер потока : 490 Мбайт (6%)
Заголовок : Авторский [Юрий Живов] AC3 5.1 640 kbps
Язык : Russian

Аудио #4
Идентификатор : 5
Формат : AC-3
Формат/Информация : Audio Coding 3
Расширение режима : CM (complete main)
Идентификатор кодека : A_AC3
Продолжительность : 1 ч. 47 м.
Вид битрейта : Постоянный
Битрейт : 640 Кбит/сек
Каналы : 6 каналов
Расположение каналов : Front: L C R, Side: L R, LFE
Частота : 48,0 КГц
Битовая глубина : 16 бит
Метод сжатия : С потерями
Размер потока : 490 Мбайт (6%)
Заголовок : Авторский [Владимир Королев] AC3 5.1 640 kbps
Язык : Russian

Аудио #5
Идентификатор : 6
Формат : AC-3
Формат/Информация : Audio Coding 3
Расширение режима : CM (complete main)
Идентификатор кодека : A_AC3
Продолжительность : 1 ч. 47 м.
Вид битрейта : Постоянный
Битрейт : 448 Кбит/сек
Каналы : 6 каналов
Расположение каналов : Front: L C R, Side: L R, LFE
Частота : 48,0 КГц
Битовая глубина : 16 бит
Метод сжатия : С потерями
Размер потока : 343 Мбайт (4%)
Заголовок : Авторский [Дмитрий Строев] AC3 5.1 448 kbps
Язык : Russian

Аудио #6
Идентификатор : 7
Формат : AC-3
Формат/Информация : Audio Coding 3
Расширение режима : CM (complete main)
Идентификатор кодека : A_AC3
Продолжительность : 1 ч. 47 м.
Вид битрейта : Постоянный
Битрейт : 640 Кбит/сек
Каналы : 6 каналов
Расположение каналов : Front: L C R, Side: L R, LFE
Частота : 48,0 КГц
Битовая глубина : 16 бит
Метод сжатия : С потерями
Размер потока : 490 Мбайт (6%)
Заголовок : Авторский [Евгений Рудой] AC3 5.1 640 kbps
Язык : Russian

Аудио #7
Идентификатор : 8
Формат : AC-3
Формат/Информация : Audio Coding 3
Расширение режима : CM (complete main)
Идентификатор кодека : A_AC3
Продолжительность : 1 ч. 47 м.
Вид битрейта : Постоянный
Битрейт : 192 Кбит/сек
Каналы : 2 канала
Расположение каналов : Front: L R
Частота : 48,0 КГц
Битовая глубина : 16 бит
Метод сжатия : С потерями
Размер потока : 147 Мбайт (2%)
Заголовок : Многоголосый закадровый AC3 2.0 192 kbps
Язык : Ukrainian

Аудио #8
Идентификатор : 9
Формат : AC-3
Формат/Информация : Audio Coding 3
Расширение режима : CM (complete main)
Идентификатор кодека : A_AC3
Продолжительность : 1 ч. 47 м.
Вид битрейта : Постоянный
Битрейт : 640 Кбит/сек
Каналы : 6 каналов
Расположение каналов : Front: L C R, Side: L R, LFE
Частота : 48,0 КГц
Битовая глубина : 16 бит
Метод сжатия : С потерями
Размер потока : 490 Мбайт (6%)
Заголовок : AC3 5.1 640 kbps
Язык : English

Текст #1
Идентификатор : 10
Формат : UTF-8
Идентификатор кодека : S_TEXT/UTF8
Идентификатор кодека/Информация : UTF-8 Plain Text
Язык : Russian

Текст #2
Идентификатор : 11
Формат : UTF-8
Идентификатор кодека : S_TEXT/UTF8
Идентификатор кодека/Информация : UTF-8 Plain Text
Язык : English

Меню
00:00:00.000 : ru:Человеческая бесчеловечность
00:07:33.161 : ru:Бесчувственное общество
00:11:42.285 : ru:Заблудший Клерик
00:15:02.443 : ru:Велика цена
00:22:07.326 : ru:Отсуствие дозы
00:25:27.234 : ru:Существование и цель
00:30:56.980 : ru:Пробуждение эмоций
00:36:50.156 : ru:Слезы и жалость
00:44:50.563 : ru:Сомневающийся отец?
00:47:25.678 : ru:Большая ошибка
00:56:29.011 : ru:"Он эмоциональный преступник"
01:02:55.230 : ru:Вопросы к Мэри
01:06:12.635 : ru:Контакт с Сопротивлением
01:14:44.939 : ru:Сожжение
01:23:32.591 : ru:Нечего скрывать
01:28:56.998 : ru:"Не без неожиданностей"
01:34:23.157 : ru:Расплата
01:40:16.552 : ru:Финальные титры




Релиз от:
загрузка...
Правила, инструкции, FAQ!!!
Торрент  Добавлен [05 янв 2014, 22:19] Скачать торрент
Скачать торрент
[ Размер 21.33 КБ / Просмотров 12 ]

Статус  
 
Размер  8.29 ГБ
Приватный: Нет (DHT включён)
.torrent скачан  0
Как залить торрент? | Как скачать Torrent? | Как смотреть и слушать онлайн?  


     Отправить личное сообщение
   
Страница 1 из 1
Показать сообщения за:  Поле сортировки  
Начать новую тему Ответить на тему

   Похожие торренты   Автор   Ответы   Просмотры   Последнее сообщение 
В этой теме нет новых непрочитанных сообщений. Скачать торрент Эквилибриум / Equilibrium (2002) HDRip-AVC | D

в форуме 720p | 1080p, Размер: 2.19 ГБ, Здоровье: 0%

Anonymous

0
0|0

25
0

05 янв 2014, 22:15

Anonymous Перейти к последнему сообщению

В этой теме нет новых непрочитанных сообщений. Скачать торрент Проверен [iPod] Эквилибриум / Equilibrium (Курт Уиммер) [2002 г., фантастика, боевик, триллер]

в форуме Фильмы для iPod, iPhone, iPad, Размер: 492.79 МБ, Здоровье: 0%

Anonymous

0
0|0

22
0

14 май 2015, 00:24

Anonymous Перейти к последнему сообщению

В этой теме нет новых непрочитанных сообщений. Скачать торрент Ю-571 / U-571 (2000) BDRip-AVC | D, A | Open Matte

в форуме Военные, Размер: 3.27 ГБ, Здоровье: 100%

Anonymous

0
6|2

72
60

10 янв 2014, 11:37

Anonymous Перейти к последнему сообщению

В этой теме нет новых непрочитанных сообщений. Скачать торрент Проверен Война / War (2007) BDRip | D | Open Matte

в форуме Боевики, Размер: 1.46 ГБ, Здоровье: 100%

Гость

0
89|67

72
75

09 апр 2015, 19:41

Гость Перейти к последнему сообщению

В этой теме нет новых непрочитанных сообщений. Скачать торрент Проверен Ю-571 / U-571 (2000) BDRip 1080p | D, A | Open Matte

в форуме 720p | 1080p, Размер: 19.72 ГБ, Здоровье: 100%

Гость

0
23|0

52
140

20 дек 2014, 15:36

Гость Перейти к последнему сообщению



Сейчас этот форум просматривают: нет зарегистрированных пользователей и гости: 3


Вы не можете начинать темы
Вы не можете отвечать на сообщения
Вы не можете редактировать свои сообщения
Вы не можете удалять свои сообщения
Вы не можете добавлять вложения

Перейти:  

!ВНИМАНИЕ!
 Ресурс не предоставляет электронные версии произведений, а занимается лишь коллекционированием и каталогизацией ссылок, присылаемых и публикуемых на форуме нашими читателями. Если вы являетесь правообладателем какого-либо представленного материала и не желаете чтобы ссылка на него находилась в нашем каталоге, свяжитесь с нами и мы незамедлительно удалим её. Файлы для обмена на трекере предоставлены пользователями сайта, и администрация не несёт ответственности за их содержание. Просьба не заливать файлы, защищенные авторскими правами, а также файлы нелегального содержания!