На всех торрентах на трекере установлена скидка на скачивание в размере 100 процентов(а).
 Возможность скачивания торрента НЕ зависит от ограничений при низком ратио, низком аплоаде, требуемом ратио или требуемом аплоаде.


Начать новую тему Ответить на тему
Статистика раздачи
Размер: 7.54 ГБ | Добавлен: 05 янв 2014, 18:13 | Скачали: 0
Сидеров: 0  [0 байт/сек]    Личеров: 0  [0 байт/сек]
Пред. тема | След. тема 

Автор
Сообщение

СообщениеДобавлено: 05 янв 2014, 18:13 


Ветеран / The Veteran


Информация о фильме
Название: Ветеран
Оригинальное название: The Veteran
Год выхода: 2011
Жанр: Боевик, Триллер
Режиссер: Мэттью Хоуп / Matthew Hope

В ролях: Тоби Кеббелл, Брайан Кокс, Тони Карран, Ади Бельский, Том Брук, Баши, Мем Ферда, Иванно Джеремия, Селва Расалингам, Ебосета Аймера

О фильме:
Солдат, вернувшись с войны в Афганистане, раскрывает заговор, в который вовлечена служба разведки и банда наркоторговцев.





Страна: Великобритания
Продолжительность: 01:38:08
Перевод: Любительский (двухголосый)

Кодек: H.264
Формат: MKV
Качество: BDRip [720p]
Видео: MPEG-4, 1280x690, 24.000 fps, 7424 kbps, 0.348 bit/pixel.
Звук#1: AC3 , 48,0 kHz, 6 ch, ~ 384.00 kbps (Любительский (двухголосый закадровый) Jolly Roger R. G.)
Звук#2: DTS , 48,0 kHz, 6 ch, ~1536.00 kbps (Любительский (одноголосый закадровый) -Anubis-)
Звук#3: DTS , 48,0 kHz, 6 ch, ~1536.00 kbps (Оригинальный английский)
Субтитры: Русские, английские

General
Complete name : N:Ветеран (2011) [720p] BDRip-AVC.mkv
Format : Matroska
File size : 7.54 GiB
Duration : 1h 38mn
Overall bit rate : 11.0 Mbps
Movie name : -Talian-
Encoded date : UTC 2011-09-12 13:48:54
Writing application : mkvmerge v3.3.0 ('Language') сборка от May 14 2010 17:11:50
Writing library : libebml v0.8.0 + libmatroska v0.9.0
Video #1
ID : 1
Format : AVC
Format/Info : Advanced Video Codec
Format profile : High@L4.1
Format settings, CABAC : Yes
Format settings, ReFrames : 9 frames
Muxing mode : Container profile=Unknown@4.1
Codec ID : V_MPEG4/ISO/AVC
Duration : 1h 38mn
Bit rate : 7 370 Kbps
Width : 1 280 pixels
Height : 690 pixels
Display aspect ratio : 1.855
Frame rate : 24.000 fps
Color space : YUV
Chroma subsampling : 4:2:0
Bit depth : 8 bits
Scan type : Progressive
Bits/(Pixel*Frame) : 0.348
Stream size : 5.05 GiB (67%)
Title : The Veteran 2011 720p BluRay AC3 x264-EbP
Writing library : x264 core 116 r2019 9cc407d
Encoding settings : cabac=1 / ref=9 / deblock=1:-3:-3 / analyse=0x3:0x133 / me=umh / subme=9 / psy=1 / psy_rd=0.80:0.00 / mixed_ref=1 / me_range=18 / chroma_me=1 / trellis=2 / 8x8dct=1 / cqm=0 / deadzone=21,11 / fast_pskip=0 / chroma_qp_offset=-2 / threads=12 / sliced_threads=0 / nr=0 / decimate=0 / interlaced=0 / bluray_compat=0 / constrained_intra=0 / bframes=7 / b_pyramid=2 / b_adapt=2 / b_bias=0 / direct=3 / weightb=1 / open_gop=0 / weightp=2 / keyint=250 / keyint_min=24 / scenecut=40 / intra_refresh=0 / rc=crf / mbtree=0 / crf=16.8 / qcomp=0.80 / qpmin=10 / qpmax=51 / qpstep=4 / ip_ratio=1.40 / pb_ratio=1.30 / aq=1:0.90
Language : English
Audio #2
ID : 2
Format : AC-3
Format/Info : Audio Coding 3
Mode extension : CM (complete main)
Codec ID : A_AC3
Duration : 1h 38mn
Bit rate mode : Constant
Bit rate : 384 Kbps
Channel(s) : 6 channels
Channel positions : Front: L C R, Side: L R, LFE
Sampling rate : 48.0 KHz
Bit depth : 16 bits
Stream size : 270 MiB (3%)
Title : DVO-Jolly Roger R. G.
Language : Russian
Audio #3
ID : 3
Format : DTS
Format/Info : Digital Theater Systems
Codec ID : A_DTS
Duration : 1h 38mn
Bit rate mode : Constant
Bit rate : 1 510 Kbps
Channel(s) : 6 channels
Channel positions : Front: L C R, Side: L R, LFE
Sampling rate : 48.0 KHz
Bit depth : 24 bits
Stream size : 1.03 GiB (14%)
Title : VO-Anubis-
Language : Russian
Audio #4
ID : 4
Format : DTS
Format/Info : Digital Theater Systems
Codec ID : A_DTS
Duration : 1h 38mn
Bit rate mode : Constant
Bit rate : 1 510 Kbps
Channel(s) : 6 channels
Channel positions : Front: L C R, Side: L R, LFE
Sampling rate : 48.0 KHz
Bit depth : 24 bits
Stream size : 1.03 GiB (14%)
Title : Original
Language : English
Text #5
ID : 5
Format : UTF-8
Codec ID : S_TEXT/UTF8
Codec ID/Info : UTF-8 Plain Text
Title : Sub
Language : Russian
Text #6
ID : 6
Format : UTF-8
Codec ID : S_TEXT/UTF8
Codec ID/Info : UTF-8 Plain Text
Title : Sub
Language : English






загрузка...
Правила, инструкции, FAQ!!!
Торрент  Добавлен [05 янв 2014, 18:13] Скачать торрент
Скачать торрент
[ Размер 38.12 КБ / Просмотров 6 ]

Статус  
 
Размер  7.54 ГБ
Приватный: Нет (DHT включён)
.torrent скачан  0
Как залить торрент? | Как скачать Torrent? | Как смотреть и слушать онлайн?  


     Отправить личное сообщение
   
Страница 1 из 1
Показать сообщения за:  Поле сортировки  
Начать новую тему Ответить на тему

   Похожие торренты   Автор   Ответы   Просмотры   Последнее сообщение 
В этой теме нет новых непрочитанных сообщений. Скачать торрент Проверен Ветеран [01-04 из 04] (2015) SATRip

в форуме Отечественные сериалы, Размер: 2.15 ГБ, Здоровье: 100%

Гость

0
648|566

212
1345

21 фев 2015, 11:23

Гость Перейти к последнему сообщению

В этой теме нет новых непрочитанных сообщений. Скачать торрент Проверен Владимир Колычев | Ветеран бандитских войн (2015) [FB2]

в форуме Детективы и Боевики, Размер: 897.45 КБ, Здоровье: 100%

Гость

0
13|3

56
5

21 июн 2015, 01:13

Гость Перейти к последнему сообщению

В этой теме нет новых непрочитанных сообщений. Скачать торрент Проверен Фредерик Форсайт - Ветеран (сборник повестей) [С.Старчиков, 2007]

в форуме Детектив и Боевики, Размер: 825.48 МБ, Здоровье: 0%

Anonymous

0
0|0

10
1

04 май 2016, 22:27

Anonymous Перейти к последнему сообщению

В этой теме нет новых непрочитанных сообщений. Скачать торрент Проверен Deep Purple with Orchestra - Live At Montreux 2011 [2011, Hard Rock, BDRip 720p]

в форуме Концерты (HD-Video), Размер: 7.95 ГБ, Здоровье: 100%

Anonymous

0
4|2

6
2

23 окт 2016, 19:00

Anonymous Перейти к последнему сообщению

В этой теме нет новых непрочитанных сообщений. Скачать торрент Проверен Simply Red - Farewell Live in Concert at Sydney Opera House [2011, 720p, DTS, LPCM] [2011, New Wave, Pop Rock, Blue-Eyed Soul, BDRip]

в форуме Концерты (HD-Video), Размер: 6.52 ГБ, Здоровье: 100%

Гость

0
8|8

167
3

03 май 2015, 22:19

Гость Перейти к последнему сообщению



Сейчас этот форум просматривают: нет зарегистрированных пользователей и гости: 1


Вы не можете начинать темы
Вы не можете отвечать на сообщения
Вы не можете редактировать свои сообщения
Вы не можете удалять свои сообщения
Вы не можете добавлять вложения

Перейти:  

!ВНИМАНИЕ!
 Ресурс не предоставляет электронные версии произведений, а занимается лишь коллекционированием и каталогизацией ссылок, присылаемых и публикуемых на форуме нашими читателями. Если вы являетесь правообладателем какого-либо представленного материала и не желаете чтобы ссылка на него находилась в нашем каталоге, свяжитесь с нами и мы незамедлительно удалим её. Файлы для обмена на трекере предоставлены пользователями сайта, и администрация не несёт ответственности за их содержание. Просьба не заливать файлы, защищенные авторскими правами, а также файлы нелегального содержания!