На всех торрентах на трекере установлена скидка на скачивание в размере 100 процентов(а).
 Возможность скачивания торрента НЕ зависит от ограничений при низком ратио, низком аплоаде, требуемом ратио или требуемом аплоаде.


Начать новую тему Ответить на тему
Статистика раздачи
Размер: 4.31 ГБ | Добавлен: 05 янв 2014, 17:40 | Скачали: 0
Сидеров: 0  [0 байт/сек]    Личеров: 0  [0 байт/сек]
Пред. тема | След. тема 

Автор
Сообщение

СообщениеДобавлено: 05 янв 2014, 17:40 

Название: Дворецкий
Оригинальное название: The Butler
Год выхода: 2013
Жанр: драма, биография
Режиссер: Ли Дэниелс

В ролях: Форест Уитакер, Опра Уинфри, Джон Кьюсак, Джейн Фонда, Терренс Ховард, Кьюба Гудинг мл., Ленни Кравиц, Дэвид Ойелоуо, Ванесса Редгрейв

О ФИЛЬМЕ
В фильме, основанном на статье из Washington Post, рассказывается о дворецком Юджине Аллене, служившем в Белом Доме под началом восьми разных президентов.



Страна: США
Производство: Laura Ziskin Productions, Salloway Rubenstein Productions, Windy Hill Pictures
Продолжительность: 02:12:06
Перевод: Любительский (одноголосый) [VANO]


Качество: BDRip 720p
Формат: MKV
Видео: AVC, 1280x694 (1.85:1) at 23.976 fps, AVC at 3837 kbps avg, 0.180 bit/pixel
Аудио 1: Русский / AC3 / 6ch / 384 kbps | Любительский (одноголосый) [VANO]
Аудио 2: Английский AC3 / 6ch / 448 kbps | Original
Субтитры: Английские
Дополнительно: Сохранены оригинальные чаптеры как на Blu-Ray






General
Unique ID : 242293249697012163019097732813728585027 (0xB647FB848F0E3545AF56252D8D7D1543)
Complete name : H:The.Butler.2013.BD.720.Hot-Film.mkv
Format : Matroska
Format version : Version 2
File size : 4.31 GiB
Duration : 2h 12mn
Overall bit rate : 4 667 Kbps
Encoded date : UTC 2014-01-05 12:39:59
Writing application : mkvmerge v5.8.0 ('No Sleep / Pillow') built on Sep 2 2012 15:37:04
Writing library : libebml v1.2.3 + libmatroska v1.3.0

Video
ID : 1
Format : AVC
Format/Info : Advanced Video Codec
Format profile : High@L4.1
Format settings, CABAC : Yes
Format settings, ReFrames : 9 frames
Codec ID : V_MPEG4/ISO/AVC
Duration : 2h 12mn
Bit rate : 3 837 Kbps
Width : 1 280 pixels
Height : 694 pixels
Display aspect ratio : 1.85:1
Frame rate mode : Constant
Frame rate : 23.976 fps
Color space : YUV
Chroma subsampling : 4:2:0
Bit depth : 8 bits
Scan type : Progressive
Bits/(Pixel*Frame) : 0.180
Stream size : 3.45 GiB (80%)
Writing library : x264 core 138 r2358 9e941d1
Encoding settings : cabac=1 / ref=9 / deblock=1:-3:-3 / analyse=0x3:0x113 / me=umh / subme=11 / psy=1 / psy_rd=1.05:0.10 / mixed_ref=1 / me_range=32 / chroma_me=1 / trellis=2 / 8x8dct=1 / cqm=0 / deadzone=21,11 / fast_pskip=0 / chroma_qp_offset=-3 / threads=2 / lookahead_threads=1 / sliced_threads=0 / nr=0 / decimate=0 / interlaced=0 / bluray_compat=0 / constrained_intra=0 / bframes=8 / b_pyramid=2 / b_adapt=2 / b_bias=0 / direct=3 / weightb=1 / open_gop=0 / weightp=2 / keyint=240 / keyint_min=23 / scenecut=40 / intra_refresh=0 / rc_lookahead=40 / rc=2pass / mbtree=0 / bitrate=3837 / ratetol=1.0 / qcomp=0.60 / qpmin=0 / qpmax=69 / qpstep=4 / cplxblur=20.0 / qblur=0.5 / vbv_maxrate=50000 / vbv_bufsize=62500 / nal_hrd=none / ip_ratio=1.40 / pb_ratio=1.30 / aq=1:1.00
Language : English
Default : Yes
Forced : No

Audio #1
ID : 2
Format : AC-3
Format/Info : Audio Coding 3
Mode extension : CM (complete main)
Format settings, Endianness : Big
Codec ID : A_AC3
Duration : 2h 12mn
Bit rate mode : Constant
Bit rate : 384 Kbps
Channel(s) : 6 channels
Channel positions : Front: L C R, Side: L R, LFE
Sampling rate : 48.0 KHz
Bit depth : 16 bits
Compression mode : Lossy
Stream size : 363 MiB (8%)
Title : VANO
Language : Russian
Default : Yes
Forced : No

Audio #2
ID : 3
Format : AC-3
Format/Info : Audio Coding 3
Mode extension : CM (complete main)
Format settings, Endianness : Big
Codec ID : A_AC3
Duration : 2h 12mn
Bit rate mode : Constant
Bit rate : 448 Kbps
Channel(s) : 6 channels
Channel positions : Front: L C R, Side: L R, LFE
Sampling rate : 48.0 KHz
Bit depth : 16 bits
Compression mode : Lossy
Stream size : 423 MiB (10%)
Language : English
Default : No
Forced : No

Text
ID : 4
Format : UTF-8
Codec ID : S_TEXT/UTF8
Codec ID/Info : UTF-8 Plain Text
Language : English
Default : No
Forced : No

Menu
00:00:00.000 : :Chapter 01
00:07:27.072 : :Chapter 02
00:13:51.497 : :Chapter 03
00:22:26.679 : :Chapter 04
00:28:57.736 : :Chapter 05
00:36:38.530 : :Chapter 06
00:45:13.294 : :Chapter 07
00:51:56.196 : :Chapter 08
00:59:22.476 : :Chapter 09
01:07:08.399 : :Chapter 10
01:15:09.380 : :Chapter 11
01:20:14.101 : :Chapter 12
01:27:25.866 : :Chapter 13
01:35:12.707 : :Chapter 14
01:42:12.293 : :Chapter 15
01:49:09.251 : :Chapter 16
01:56:22.142 : :Chapter 17
02:04:42.058 : :Chapter 18

Релиз от:
загрузка...
Правила, инструкции, FAQ!!!
Торрент  Добавлен [05 янв 2014, 17:40] Скачать торрент
Скачать торрент
[ Размер 22.01 КБ / Просмотров 7 ]

Статус  
 
Размер  4.31 ГБ
Приватный: Нет (DHT включён)
.torrent скачан  0
Как залить торрент? | Как скачать Torrent? | Как смотреть и слушать онлайн?  


     Отправить личное сообщение
   
Страница 1 из 1
Показать сообщения за:  Поле сортировки  
Начать новую тему Ответить на тему

   Похожие торренты   Автор   Ответы   Просмотры   Последнее сообщение 
В этой теме нет новых непрочитанных сообщений. Скачать торрент Проверен Темный Дворецкий / Black Butler / Kuroshitsuji (2014) BDRip 720p | L2

в форуме 720p | 1080p, Размер: 5.28 ГБ, Здоровье: 100%

Anonymous

0
28|1

26
309

13 июн 2014, 16:10

Anonymous Перейти к последнему сообщению

В этой теме нет новых непрочитанных сообщений. Скачать торрент Дворецкий / The Butler (2013) HDRip | L1

в форуме Драмы, Мелодрамы, Размер: 1.37 ГБ, Здоровье: 0%

Anonymous

0
0|0

28
0

05 янв 2014, 16:17

Anonymous Перейти к последнему сообщению

В этой теме нет новых непрочитанных сообщений. Скачать торрент Проверен Темный Дворецкий / Black Butler / Kuroshitsuji (2014) HDRip | L2

в форуме Фантастика, Фэнтези, Размер: 1.37 ГБ, Здоровье: 100%

Anonymous

0
102|1

63
685

13 июн 2014, 16:07

Anonymous Перейти к последнему сообщению

В этой теме нет новых непрочитанных сообщений. Скачать торрент Проверен Марк Дворецкий | Помни о сопернике. Том 1 [2013] [PDF]

в форуме На досуге, Размер: 53.55 МБ, Здоровье: 100%

Гость

0
43|11

87
2

14 ноя 2014, 22:25

Гость Перейти к последнему сообщению

В этой теме нет новых непрочитанных сообщений. Скачать торрент Проверен Марк Дворецкий | Помни о сопернике. Том 2 [2013] [DJVU]

в форуме На досуге, Размер: 49.69 МБ, Здоровье: 100%

Anonymous

0
48|12

48
2

14 ноя 2014, 22:34

Anonymous Перейти к последнему сообщению



Сейчас этот форум просматривают: нет зарегистрированных пользователей и гости: 3


Вы не можете начинать темы
Вы не можете отвечать на сообщения
Вы не можете редактировать свои сообщения
Вы не можете удалять свои сообщения
Вы не можете добавлять вложения

Перейти:  

!ВНИМАНИЕ!
 Ресурс не предоставляет электронные версии произведений, а занимается лишь коллекционированием и каталогизацией ссылок, присылаемых и публикуемых на форуме нашими читателями. Если вы являетесь правообладателем какого-либо представленного материала и не желаете чтобы ссылка на него находилась в нашем каталоге, свяжитесь с нами и мы незамедлительно удалим её. Файлы для обмена на трекере предоставлены пользователями сайта, и администрация не несёт ответственности за их содержание. Просьба не заливать файлы, защищенные авторскими правами, а также файлы нелегального содержания!