На всех торрентах на трекере установлена скидка на скачивание в размере 100 процентов(а).
 Возможность скачивания торрента НЕ зависит от ограничений при низком ратио, низком аплоаде, требуемом ратио или требуемом аплоаде.


Начать новую тему Ответить на тему
Статистика раздачи
Размер: 5.09 ГБ | Добавлен: 05 янв 2014, 13:24 | Скачали: 0
Сидеров: 0  [0 байт/сек]    Личеров: 0  [0 байт/сек]
Пред. тема | След. тема 

Автор
Сообщение

СообщениеДобавлено: 05 янв 2014, 13:24 

Страна: Германия, Россия
Жанр: комедия

Год выпуска: 2012

Продолжительность: 01:41:14


Перевод: Профессиональный (многоголосый, закадровый) + Оригинальный (немецкий)
Субтитры: русские

Режиссер: Ральф Хюттнер / Ralf Huettner

В ролях: Йоахим Круль (Matthias Bleuel), Владимир Бурлаков (Артём Черемных), Катя Риман (Ilka), Армин Роде (Holger), Михаэль Деген (Director Fengler), Зоя Буряк (Галина Карпова), Светлана Цвиченко (Наталья), Юлия Мен (Саяна), Майкл Дефферт (HГ¶rspielsprecher, озвучка), Нина Семенова (Людмила), Манджиева Гильяна (Кине), Димитрий Поднозов (отец Артёма)


Описание: Маттиас Блойель - логист, представитель сети модной одежды «Фенглер» из Леверкузена, после развода с женой живёт как во сне. Но лишь до того момента, пока шеф Фенглер не отправляет его в командировку в маленький филиал фирмы на юге Сибири. Одетый в пуховик, вооружённый слезоточивым баллончиком, дезинфицирующими средствами, он отправляется в путь. Маттиас считает, что в Сибири его ожидают снег, лёд и опасность. Но достигнув цели, он понимает, что на самом деле все совсем иначе. Маттиас не знает языка и не понимает менталитет местных жителей, и для облегчения задачи к нему прикрепляют переводчика Артема.
Но насколько велика разница между Кемерово и родиной Маттиаса, Блоель понимает во время концерта, когда с первого взгляда влюбляется в певицу Саяну. Саяна принадлежит к малочисленному народу шоры, и чтобы встретиться с ней вновь, Маттиас отправляется в отдалённый регион Сибири. Артем поначалу неохотно сопровождает его, но постепенно между такими разными мужчинами вырастает и крепнет дружба.
Так Блойель начинает своё, на первый взгляд, странное путешествие в волшебство сибирского лета и в глубину своего сердца...






Качество: BDRip 1080p
Контейнер: MKV
Исходник: BD
Видео: AVC, 1920x816 (2.35:1), 5500 kbps, 23,976 fps, 0,146 bpp
Аудио №1: русский / AC3 / 2.0 / 48 kHz / 192 kbps / 16 bit ||
Аудио №2: немецкий / DTS / 5.1 / 48 kHz / 1510 kbps / 24 bit



General
Unique ID : 172503287159635079567177880235429969662 (0x81C6ECB43295C7538CAEAD5F5A39BEFE)
Complete name : E:BDКак.назло.Сибирь.2012.BDRip.1080p.[New-Team].mkv
Format : Matroska
Format version : Version 4 / Version 2
File size : 5.09 GiB
Duration : 1h 41mn
Overall bit rate : 7 203 Kbps
Encoded date : UTC 2014-01-05 09:28:19
Writing application : mkvmerge v6.6.0 ('The Edge Of The In Between') built on Dec 1 2013 17:55:00
Writing library : libebml v1.3.0 + libmatroska v1.4.1
Attachment : Yes

Video
ID : 1
Format : AVC
Format/Info : Advanced Video Codec
Format profile : High@L4.1
Format settings, CABAC : Yes
Format settings, ReFrames : 4 frames
Codec ID : V_MPEG4/ISO/AVC
Duration : 1h 41mn
Bit rate : 5 500 Kbps
Width : 1 920 pixels
Height : 816 pixels
Display aspect ratio : 2.35:1
Frame rate : 23.976 fps
Color space : YUV
Chroma subsampling : 4:2:0
Bit depth : 8 bits
Scan type : Progressive
Bits/(Pixel*Frame) : 0.146
Stream size : 3.79 GiB (74%)
Writing library : x264 core 132 r2310 76a5c3a
Encoding settings : cabac=1 / ref=4 / deblock=1:-3:-3 / analyse=0x3:0x113 / me=umh / subme=10 / psy=1 / psy_rd=1.00:0.15 / mixed_ref=1 / me_range=48 / chroma_me=1 / trellis=2 / 8x8dct=1 / cqm=0 / deadzone=21,11 / fast_pskip=0 / chroma_qp_offset=-3 / threads=3 / lookahead_threads=1 / sliced_threads=0 / nr=0 / decimate=0 / interlaced=0 / bluray_compat=0 / constrained_intra=0 / bframes=8 / b_pyramid=2 / b_adapt=2 / b_bias=0 / direct=3 / weightb=1 / open_gop=0 / weightp=2 / keyint=240 / keyint_min=24 / scenecut=40 / intra_refresh=0 / rc_lookahead=60 / rc=2pass / mbtree=0 / bitrate=5500 / ratetol=1.0 / qcomp=1.00 / qpmin=0 / qpmax=69 / qpstep=4 / cplxblur=20.0 / qblur=0.5 / vbv_maxrate=40000 / vbv_bufsize=30000 / nal_hrd=none / ip_ratio=1.40 / pb_ratio=1.30 / aq=1:0.80
Default : Yes
Forced : No

Audio #1
ID : 2
Format : AC-3
Format/Info : Audio Coding 3
Mode extension : CM (complete main)
Codec ID : A_AC3
Duration : 1h 41mn
Bit rate mode : Constant
Bit rate : 192 Kbps
Channel(s) : 2 channels
Channel positions : Front: L R
Sampling rate : 48.0 KHz
Bit depth : 16 bits
Compression mode : Lossy
Stream size : 139 MiB (3%)
Title : MVO
Language : Russian
Default : Yes
Forced : No

Audio #2
ID : 3
Format : DTS
Format/Info : Digital Theater Systems
Codec ID : A_DTS
Duration : 1h 41mn
Bit rate mode : Constant
Bit rate : 1 510 Kbps
Channel(s) : 6 channels
Channel positions : Front: L C R, Side: L R, LFE
Sampling rate : 48.0 KHz
Bit depth : 24 bits
Compression mode : Lossy
Stream size : 1.07 GiB (21%)
Title : Оригинал
Language : German
Default : No
Forced : No

Text
ID : 4
Format : PGS
Muxing mode : zlib
Codec ID : S_HDMV/PGS
Codec ID/Info : The same subtitle format used on BDs/HD-DVDs
Title : Русские
Language : Russian
Default : No
Forced : No


Релиз от:
загрузка...
Правила, инструкции, FAQ!!!
Торрент  Добавлен [05 янв 2014, 13:24] Скачать торрент
Скачать торрент
[ Размер 13.36 КБ / Просмотров 10 ]

Статус  
 
Размер  5.09 ГБ
Приватный: Нет (DHT включён)
.torrent скачан  0
Как залить торрент? | Как скачать Torrent? | Как смотреть и слушать онлайн?  


     Отправить личное сообщение
   
Страница 1 из 1
Показать сообщения за:  Поле сортировки  
Начать новую тему Ответить на тему

   Похожие торренты   Автор   Ответы   Просмотры   Последнее сообщение 
В этой теме нет новых непрочитанных сообщений. Скачать торрент Проверен Сибирь. Монамур (Вячеслав Росс) [2011, Россия, драма, Blu-ray disc 1080p]

в форуме Наше кино (HD Video), Размер: 19.26 ГБ, Здоровье: 100%

Anonymous

0
8|2

127
0

12 апр 2015, 15:07

Anonymous Перейти к последнему сообщению

В этой теме нет новых непрочитанных сообщений. Скачать торрент Проверен Coldplay - Live 2012 [2012, Alternative rock, post-Britpop, BDRip 1080p]

в форуме Концерты (HD-Video), Размер: 6.56 ГБ, Здоровье: 100%

Anonymous

0
1|0

0
0

23 окт 2016, 12:43

Anonymous Перейти к последнему сообщению

В этой теме нет новых непрочитанных сообщений. Скачать торрент Проверен После / After (2012) BDRip 1080p | L2, L1

в форуме 720p | 1080p, Размер: 7.03 ГБ, Здоровье: 100%

Гость

0
391|188

193
68

05 июл 2015, 14:37

Гость Перейти к последнему сообщению

В этой теме нет новых непрочитанных сообщений. Скачать торрент Рассказы (2012) BDRip 1080p

в форуме 720p | 1080p, Размер: 4.37 ГБ, Здоровье: 0%

Anonymous

0
0|0

57
0

20 фев 2014, 22:35

Anonymous Перейти к последнему сообщению

В этой теме нет новых непрочитанных сообщений. Скачать торрент Проверен (Punk-Rock) FLAER - Назло - 2013, MP3, 320 kbps

в форуме Русский Рок, Размер: 37.42 МБ, Здоровье: 100%

Anonymous

0
6|0

4
1

21 авг 2016, 08:29

Anonymous Перейти к последнему сообщению



Сейчас этот форум просматривают: нет зарегистрированных пользователей и гости: 1


Вы не можете начинать темы
Вы не можете отвечать на сообщения
Вы не можете редактировать свои сообщения
Вы не можете удалять свои сообщения
Вы не можете добавлять вложения

Перейти:  

!ВНИМАНИЕ!
 Ресурс не предоставляет электронные версии произведений, а занимается лишь коллекционированием и каталогизацией ссылок, присылаемых и публикуемых на форуме нашими читателями. Если вы являетесь правообладателем какого-либо представленного материала и не желаете чтобы ссылка на него находилась в нашем каталоге, свяжитесь с нами и мы незамедлительно удалим её. Файлы для обмена на трекере предоставлены пользователями сайта, и администрация не несёт ответственности за их содержание. Просьба не заливать файлы, защищенные авторскими правами, а также файлы нелегального содержания!