На всех торрентах на трекере установлена скидка на скачивание в размере 100 процентов(а).
 Возможность скачивания торрента НЕ зависит от ограничений при низком ратио, низком аплоаде, требуемом ратио или требуемом аплоаде.


Начать новую тему Ответить на тему
Статистика раздачи
Размер: 7.75 ГБ | Добавлен: 05 янв 2014, 13:16 | Скачали: 11
Сидеров: 3  [0 байт/сек]    Личеров: 0  [0 байт/сек]
Пред. тема | След. тема 

Автор
Сообщение

СообщениеДобавлено: 05 янв 2014, 13:16 

Информация о фильме
Название: Дорога на Арлингтон
Оригинальное название: Arlington Road
Год выпуска: 1999
Жанр: Триллер, детектив
Выпущено: США
Режиссер: Марк Пеллингтон
В ролях: Джефф Бриджес, Тим Робинс, Джоан Кьюзак, Хоуп Дэвис, Роберт Госсетт, Мэйсон Гэмбл, Спенсер Трит Кларк

Перевод: Дублированный, многоголосый


Сюжет фильма

После трагической гибели жены профессор Майкл Фарадей вынужден в одиночку воспитывать своего сына. Однажды он знакомится с милой соседской семьей, которая помогает Майклу оправиться от тяжелого потрясения. Однако новые друзья вселили в его душу новые смятения…





Файл
Качество: BDRip 1080p (исходник Blu-ray)
Видео: 1920x800, 8 149 Кбит/сек, 23,976 кадр/сек, AVC, x264, High@L4.1, 0.221 Бит/[Пиксели*Кадры], 2pass
Аудио 1: AC3, 6 ch, 640 Кбит/с - English
Аудио 2: AC3, 6 ch, 448 Кбит/с - Профессиональный (многоголосый закадровый)
Аудио 3: AC3, 2 ch, 192 Кбит/с - полное дублирование

Чаптеры: есть
Субтитры: Русские
Продолжительность: 01:57:44
Автор Рипа:








Format : Matroska
Format version : Version 2
File size : 7.75 GiB
Duration : 1h 57mn
Overall bit rate : 9 426 Kbps
Movie name : Doroga na Arlington.(1999).BDRip.1080p.[denis100]
Encoded date : UTC 2014-01-05 09:07:30
Writing application : mkvmerge v5.8.0 ('No Sleep / Pillow') built on Sep 2 2012 15:37:04
Writing library : libebml v1.2.3 + libmatroska v1.3.0

Video
ID : 1
Format : AVC
Format/Info : Advanced Video Codec
Format profile : High@L4.1
Format settings, CABAC : Yes
Format settings, ReFrames : 5 frames
Codec ID : V_MPEG4/ISO/AVC
Duration : 1h 57mn
Bit rate : 8 149 Kbps
Width : 1 920 pixels
Height : 800 pixels
Display aspect ratio : 2.40:1
Frame rate mode : Constant
Frame rate : 23.976 fps
Color space : YUV
Chroma subsampling : 4:2:0
Bit depth : 8 bits
Scan type : Progressive
Bits/(Pixel*Frame) : 0.221
Stream size : 6.55 GiB (84%)
Title : Doroga na Arlington.(1999).BDRip.1080p от denis100
Writing library : x264 core 140 r2377 1ca7bb9
Encoding settings : cabac=1 / ref=5 / deblock=1:-3:-3 / analyse=0x3:0x133 / me=umh / subme=11 / psy=1 / psy_rd=1.00:0.10 / mixed_ref=1 / me_range=32 / chroma_me=1 / trellis=2 / 8x8dct=1 / cqm=0 / deadzone=21,11 / fast_pskip=0 / chroma_qp_offset=-3 / threads=6 / lookahead_threads=1 / sliced_threads=0 / nr=0 / decimate=0 / interlaced=0 / bluray_compat=0 / constrained_intra=0 / bframes=6 / b_pyramid=2 / b_adapt=2 / b_bias=0 / direct=3 / weightb=1 / open_gop=0 / weightp=2 / keyint=240 / keyint_min=23 / scenecut=40 / intra_refresh=0 / rc=2pass / mbtree=0 / bitrate=8149 / ratetol=1.0 / qcomp=0.60 / qpmin=0 / qpmax=69 / qpstep=4 / cplxblur=20.0 / qblur=0.5 / ip_ratio=1.40 / pb_ratio=1.30 / aq=1:0.90
Language : English
Default : Yes
Forced : No

Audio #1
ID : 2
Format : AC-3
Format/Info : Audio Coding 3
Mode extension : CM (complete main)
Format settings, Endianness : Big
Codec ID : A_AC3
Duration : 1h 57mn
Bit rate mode : Constant
Bit rate : 640 Kbps
Channel count : 6 channels
Channel positions : Front: L C R, Side: L R, LFE
Sampling rate : 48.0 KHz
Bit depth : 16 bits
Compression mode : Lossy
Stream size : 539 MiB (7%)
Title : English
Language : English
Default : No
Forced : No

Audio #2
ID : 3
Format : AC-3
Format/Info : Audio Coding 3
Mode extension : CM (complete main)
Format settings, Endianness : Big
Codec ID : A_AC3
Duration : 1h 57mn
Bit rate mode : Constant
Bit rate : 448 Kbps
Channel count : 6 channels
Channel positions : Front: L C R, Side: L R, LFE
Sampling rate : 48.0 KHz
Bit depth : 16 bits
Compression mode : Lossy
Stream size : 377 MiB (5%)
Title : Профессиональный (многоголосый закадровый)
Language : Russian
Default : No
Forced : No

Audio #3
ID : 4
Format : AC-3
Format/Info : Audio Coding 3
Mode extension : CM (complete main)
Format settings, Endianness : Big
Codec ID : A_AC3
Duration : 1h 57mn
Bit rate mode : Constant
Bit rate : 192 Kbps
Channel count : 2 channels
Channel positions : Front: L R
Sampling rate : 48.0 KHz
Bit depth : 16 bits
Compression mode : Lossy
Stream size : 162 MiB (2%)
Title : Профессиональный (полное дублирование)
Language : Russian
Default : Yes
Forced : No

Text
ID : 5
Format : UTF-8
Codec ID : S_TEXT/UTF8
Codec ID/Info : UTF-8 Plain Text
Title : русские
Language : Russian
Default : No
Forced : No

Menu
00:00:00.000 : en:00:00:00.000
00:08:14.619 : en:00:08:14.619
00:13:38.818 : en:00:13:38.818
00:20:53.627 : en:00:20:53.627
00:26:54.780 : en:00:26:54.780
00:34:11.466 : en:00:34:11.466
00:39:15.603 : en:00:39:15.603
00:47:19.336 : en:00:47:19.336
00:55:38.085 : en:00:55:38.085
01:02:25.742 : en:01:02:25.742
01:11:17.690 : en:01:11:17.690
01:17:08.123 : en:01:17:08.123
01:24:22.599 : en:01:24:22.599
01:35:58.252 : en:01:35:58.252
01:44:05.906 : en:01:44:05.906
01:46:56.076 : en:01:46:56.076



x264 [info]: frame I:1063 Avg QP:16.25 size:139752
x264 [info]: frame P:38186 Avg QP:18.97 size: 73002
x264 [info]: frame B:130134 Avg QP:20.57 size: 32698
загрузка...
Правила, инструкции, FAQ!!!
Торрент  Добавлен [05 янв 2014, 13:16] Скачать торрент
Скачать торрент
[ Размер 39.2 КБ / Просмотров 7 ]

Статус  
 
Размер  7.75 ГБ
Приватный: Нет (DHT включён)
.torrent скачан  11
Как залить торрент? | Как скачать Torrent? | Как смотреть и слушать онлайн?  


     Отправить личное сообщение
   
Страница 1 из 1
Показать сообщения за:  Поле сортировки  
Начать новую тему Ответить на тему

   Похожие торренты   Автор   Ответы   Просмотры   Последнее сообщение 
В этой теме нет новых непрочитанных сообщений. Скачать торрент Дорога на Арлингтон / Arlington Road (1999) BDRip 720p

в форуме 720p | 1080p, Размер: 4.37 ГБ, Здоровье: 100%

Anonymous

0
7|0

42
13

07 янв 2014, 10:43

Anonymous Перейти к последнему сообщению

В этой теме нет новых непрочитанных сообщений. Скачать торрент Дорога на Арлингтон / Arlington Road (1998) HDRip

в форуме Триллеры, Размер: 1.45 ГБ, Здоровье: 100%

Anonymous

0
8|2

26
20

05 янв 2014, 13:19

Anonymous Перейти к последнему сообщению

В этой теме нет новых непрочитанных сообщений. Закрыто правообладателем Безумный Макс: Дорога ярости / Mad Max: Fury Road (2015) BDRip 1080p | 3D-Video | HOU | D, А Данный торрент является блокированным, причина: Закрыто правообладателем

в форуме HD-Video в 3D, Размер: 16.31 ГБ, Здоровье: 55%

Гость

0
78|141

396
45

17 авг 2015, 23:56

Гость Перейти к последнему сообщению

В этой теме нет новых непрочитанных сообщений. Безумный Макс: Дорога ярости / Mad Max: Fury Road (2015) BDRip 1080p | iTunes

в форуме Новинки кино, Размер: 7.96 ГБ, Здоровье: 22%

Гость

0
215|941

1426
94

14 авг 2015, 16:03

Гость Перейти к последнему сообщению

В этой теме нет новых непрочитанных сообщений. Закрыто правообладателем Безумный Макс: Дорога ярости / Mad Max: Fury Road (2015) BDRip 1080p от Ash61 | 3D-Video | halfOU | D Данный торрент является блокированным, причина: Закрыто правообладателем

в форуме HD-Video в 3D, Размер: 14.36 ГБ, Здоровье: 33%

Гость

0
124|370

451
72

18 авг 2015, 00:07

Гость Перейти к последнему сообщению



Сейчас этот форум просматривают: нет зарегистрированных пользователей и гости: 1


Вы не можете начинать темы
Вы не можете отвечать на сообщения
Вы не можете редактировать свои сообщения
Вы не можете удалять свои сообщения
Вы не можете добавлять вложения

Перейти:  

!ВНИМАНИЕ!
 Ресурс не предоставляет электронные версии произведений, а занимается лишь коллекционированием и каталогизацией ссылок, присылаемых и публикуемых на форуме нашими читателями. Если вы являетесь правообладателем какого-либо представленного материала и не желаете чтобы ссылка на него находилась в нашем каталоге, свяжитесь с нами и мы незамедлительно удалим её. Файлы для обмена на трекере предоставлены пользователями сайта, и администрация не несёт ответственности за их содержание. Просьба не заливать файлы, защищенные авторскими правами, а также файлы нелегального содержания!