На всех торрентах на трекере установлена скидка на скачивание в размере 100 процентов(а).
 Возможность скачивания торрента НЕ зависит от ограничений при низком ратио, низком аплоаде, требуемом ратио или требуемом аплоаде.


Начать новую тему Ответить на тему
Статистика раздачи
Размер: 2.18 ГБ | Добавлен: 05 янв 2014, 11:11 | Скачали: 0
Сидеров: 0  [0 байт/сек]    Личеров: 0  [0 байт/сек]
Пред. тема | След. тема 

Автор
Сообщение

СообщениеДобавлено: 05 янв 2014, 11:11 

Название: Пистолет в сумочке Бетти Лу
Оригинальное название: The Gun in Betty Lou's Handbag
Год выпуска: 1992
Жанр: Комедия, детектив
Режиссер: Аллан Мойле

В ролях: Пенелопа Энн Миллер, Эрик Тал, Уильям Форсайт, Элфри Вудард, Джулианна Мур, Энди Романо, Рэй МакКиннон, Ксандер Беркли, Кэти Мориарти, Мит Лоуф

Описание: В тихой библиотеке среди книжной пыли может порой подняться настоящий ураган. Бетти Лу обожает своего мужа, но он не уделяет ей достаточно времени. Когда в городе убивают известного мафиози, Бетти находит в реке пистолет — орудие преступления и выдает себя за таинственного киллера. Своим странным поступком она сразу завоевывает себе внимание не только собственного мужа, но и всех жителей города.



Страна: США
Студия: In The Bag Productions, Interscope Communications
Продолжительность: 01:28:42
Перевод: Профкссиональный многоголосый, авторский одноголосый


Качество: BDRip (AVC)
Видео: MPEG-4 AVC, 2939 Кбит/с, 1024x576, 23.976 кадр/с
Аудио #1: Русский (AC3, 2 ch, 192 Кбит/с) / Профессиональный многоголосый
Аудио #2: Русский (AC3, 2 ch, 192 Кбит/с) / Авторский одноголосый (А. Михалёв)
Аудио #3: Английский (AC3, 2 ch, 192 Кбит/с)

Семпл



x264 [info]: frame I:1053 Avg QP:16.38 size: 67996
x264 [info]: frame P:26264 Avg QP:18.93 size: 28292
x264 [info]: frame B:100288 Avg QP:20.32 size: 11360
******************************************************************************************************
Общее
Уникальный идентификатор : 239288078981265398700588373145878220615 (0xB40535298008610481F8031046A34F47)
Полное имя : D:Mои раздачиPistolet.v.sumochke.Betti.Lu.1992.BDRip.(AVC)-MediaClub.mkv
Формат : Matroska
Версия формата : Version 4 / Version 2
Размер файла : 2,18 Гбайт
Продолжительность : 1 ч. 28 м.
Общий поток : 3514 Кбит/сек
Название фильма : -=MediaClub-kaspr=-
Дата кодирования : UTC 2014-01-04 14:14:32
Программа кодирования : mkvmerge v6.1.0 ('Old Devil') built on Mar 4 2013 09:10:42
Библиотека кодирования : libebml v1.3.0 + libmatroska v1.4.0

Видео
Идентификатор : 1
Формат : AVC
Формат/Информация : Advanced Video Codec
Профиль формата : High@L4.1
Параметр CABAC формата : Да
Параметр ReFrames формата : 9 кадров
Идентификатор кодека : V_MPEG4/ISO/AVC
Продолжительность : 1 ч. 28 м.
Битрейт : 2939 Кбит/сек
Ширина : 1024 пикселя
Высота : 576 пикселей
Соотношение сторон : 16:9
Режим частоты кадров : Постоянный
Частота кадров : 23,976 кадра/сек
Цветовое пространство : YUV
Субдискретизация насыщенности : 4:2:0
Битовая глубина : 8 бит
Тип развёртки : Прогрессивная
Бит/(Пиксели*Кадры) : 0.208
Размер потока : 1,78 Гбайт (82%)
Заголовок : -=MediaClub-kaspr=-
Библиотека кодирования : x264 core 130 r2273 b3065e6
Настройки программы : cabac=1 / ref=9 / deblock=1:-3:-3 / analyse=0x3:0x133 / me=umh / subme=11 / psy=1 / psy_rd=1.00:0.20 / mixed_ref=1 / me_range=48 / chroma_me=1 / trellis=2 / 8x8dct=1 / cqm=0 / deadzone=21,11 / fast_pskip=0 / chroma_qp_offset=-3 / threads=12 / lookahead_threads=3 / sliced_threads=0 / nr=0 / decimate=0 / interlaced=0 / bluray_compat=0 / constrained_intra=0 / bframes=10 / b_pyramid=2 / b_adapt=2 / b_bias=0 / direct=3 / weightb=1 / open_gop=0 / weightp=2 / keyint=240 / keyint_min=23 / scenecut=40 / intra_refresh=0 / rc=2pass / mbtree=0 / bitrate=2939 / ratetol=1.0 / qcomp=0.60 / qpmin=0 / qpmax=69 / qpstep=4 / cplxblur=20.0 / qblur=0.5 / ip_ratio=1.40 / pb_ratio=1.30 / aq=1:1.00
Default : Да
Forced : Да

Аудио #1
Идентификатор : 2
Формат : AC-3
Формат/Информация : Audio Coding 3
Расширение режима : CM (complete main)
Параметр Endianness формата : Big
Идентификатор кодека : A_AC3
Продолжительность : 1 ч. 28 м.
Вид битрейта : Постоянный
Битрейт : 192 Кбит/сек
Каналы : 2 канала
Расположение каналов : Front: L R
Частота : 48,0 КГц
Битовая глубина : 16 бит
Метод сжатия : С потерями
Размер потока : 122 Мбайт (5%)
Заголовок : MVO
Язык : Russian
Default : Да
Forced : Да

Аудио #2
Идентификатор : 3
Формат : AC-3
Формат/Информация : Audio Coding 3
Расширение режима : CM (complete main)
Параметр Endianness формата : Big
Идентификатор кодека : A_AC3
Продолжительность : 1 ч. 28 м.
Вид битрейта : Постоянный
Битрейт : 192 Кбит/сек
Каналы : 2 канала
Расположение каналов : Front: L R
Частота : 48,0 КГц
Битовая глубина : 16 бит
Метод сжатия : С потерями
Размер потока : 122 Мбайт (5%)
Заголовок : Михалёв
Язык : Russian
Default : Нет
Forced : Нет

Аудио #3
Идентификатор : 4
Формат : AC-3
Формат/Информация : Audio Coding 3
Расширение режима : CM (complete main)
Параметр Endianness формата : Big
Идентификатор кодека : A_AC3
Продолжительность : 1 ч. 28 м.
Вид битрейта : Постоянный
Битрейт : 192 Кбит/сек
Каналы : 2 канала
Расположение каналов : Front: L R
Частота : 48,0 КГц
Битовая глубина : 16 бит
Метод сжатия : С потерями
Размер потока : 122 Мбайт (5%)
Язык : English
Default : Нет
Forced : Нет

Меню
00:00:00.000 : en:Chapter 01
00:05:02.259 : en:Chapter 02
00:10:03.435 : en:Chapter 03
00:17:57.910 : en:Chapter 04
00:22:57.584 : en:Chapter 05
00:28:05.016 : en:Chapter 06
00:31:17.750 : en:Chapter 07
00:37:15.650 : en:Chapter 08
00:43:01.327 : en:Chapter 09
00:47:54.746 : en:Chapter 10
00:52:54.295 : en:Chapter 11
00:59:29.564 : en:Chapter 12
01:04:04.130 : en:Chapter 13
01:12:28.301 : en:Chapter 14
01:18:01.426 : en:Chapter 15

Релиз: |
загрузка...
Правила, инструкции, FAQ!!!
Торрент  Добавлен [05 янв 2014, 11:11] Скачать торрент
Скачать торрент
[ Размер 11.49 КБ / Просмотров 7 ]

Статус  
 
Размер  2.18 ГБ
Приватный: Нет (DHT включён)
.torrent скачан  0
Как залить торрент? | Как скачать Torrent? | Как смотреть и слушать онлайн?  


     Отправить личное сообщение
   
Страница 1 из 1
Показать сообщения за:  Поле сортировки  
Начать новую тему Ответить на тему

   Похожие торренты   Автор   Ответы   Просмотры   Последнее сообщение 
В этой теме нет новых непрочитанных сообщений. Скачать торрент Проверен Betty Edwards / Бетти Эдвардс - DRAWING ON THE ARTIST WITHIN / Художник внутри вас [2000,DOC,RUS]

в форуме Рисунок, графический дизайн, Размер: 4.21 МБ, Здоровье: 100%

Anonymous

0
34|11

33
0

27 янв 2016, 21:56

Anonymous Перейти к последнему сообщению

В этой теме нет новых непрочитанных сообщений. Скачать торрент Проверен Betty Bossi / Бетти Босси - Patisseries salees / Несладкая выпечка [2000, PDF, FRA]

в форуме Кулинария, Размер: 20.36 МБ, Здоровье: 0%

Anonymous

0
0|0

0
0

18 окт 2016, 23:23

Anonymous Перейти к последнему сообщению

В этой теме нет новых непрочитанных сообщений. Скачать торрент Проверен Betty Crocker/Бетти Крокер - Soups, Stews and Chillies / Супы жаркое и чили [2007, PDF, ENG]

в форуме Кулинария, Размер: 14.26 МБ, Здоровье: 0%

Anonymous

0
0|0

0
0

19 окт 2016, 21:27

Anonymous Перейти к последнему сообщению

В этой теме нет новых непрочитанных сообщений. Скачать торрент Проверен Betty Edwards/Бетти Эдвардс - The new Drawing on the Right Side of the Brain Workbook/Откройте в себе художника. Рабочая тетрадь [2014, PDF, RUS/ENG]

в форуме Рисунок, графический дизайн, Размер: 135.98 МБ, Здоровье: 100%

Anonymous

0
37|11

71
2

27 янв 2016, 22:17

Anonymous Перейти к последнему сообщению

В этой теме нет новых непрочитанных сообщений. Скачать торрент Проверен Diane Carlson (ed.) - Betty Crocker Bisquick Most requested recipes 70+ 30 minute meals / Рецепты тридцатиминутных блюд из полуфабрикатов Бетти Крокер Бизквик [2006, PDF, ENG]

в форуме Кулинария, Размер: 12.94 МБ, Здоровье: 0%

Anonymous

0
0|0

0
0

19 окт 2016, 21:13

Anonymous Перейти к последнему сообщению



Сейчас этот форум просматривают: нет зарегистрированных пользователей и гости: 2


Вы не можете начинать темы
Вы не можете отвечать на сообщения
Вы не можете редактировать свои сообщения
Вы не можете удалять свои сообщения
Вы не можете добавлять вложения

Перейти:  

!ВНИМАНИЕ!
 Ресурс не предоставляет электронные версии произведений, а занимается лишь коллекционированием и каталогизацией ссылок, присылаемых и публикуемых на форуме нашими читателями. Если вы являетесь правообладателем какого-либо представленного материала и не желаете чтобы ссылка на него находилась в нашем каталоге, свяжитесь с нами и мы незамедлительно удалим её. Файлы для обмена на трекере предоставлены пользователями сайта, и администрация не несёт ответственности за их содержание. Просьба не заливать файлы, защищенные авторскими правами, а также файлы нелегального содержания!