На всех торрентах на трекере установлена скидка на скачивание в размере 100 процентов(а).
 Возможность скачивания торрента НЕ зависит от ограничений при низком ратио, низком аплоаде, требуемом ратио или требуемом аплоаде.


Начать новую тему Ответить на тему
Статистика раздачи
Размер: 5.75 ГБ | Добавлен: 04 янв 2014, 23:25 | Скачали: 0
Сидеров: 0  [0 байт/сек]    Личеров: 0  [0 байт/сек]
Пред. тема | След. тема 

Автор
Сообщение

СообщениеДобавлено: 04 янв 2014, 23:25 

Название: Четыре пера
Оригинальное название: The Four Feathers
Год выпуска: 2002
Жанр: Драма, мелодрама, приключения, военный
Выпущено: США, Великобритания, Belhaven Limited, Dune Films, Jaffilms, Marty KatzProductions, Miramax Films, Paramount Pictures
Режиссер: Шекхар Капур

В ролях: Хит Леджер, Кейт Хадсон, Уэс Бентли, Джимон Хунсу, Крис Маршалл, Майкл Шин, Руперт Пенри-Джонс, Тим Пиготт-Смит, Даниэль Кальтаджироне, Джеймс Космо, Алекс Дженнингс, Алек Век, Доби Опарей, Мохамед Боич, Кэмпбелл Браун, Энди Коумб, Анджела Дуглас, Карим Дуккали, Люси Гордон, Меган Холл, Джеймс Хиллер, Ник Холдер, Александра Каби, Хулио Льюис, Крэйг МакДональд, Лайонел Махоп, Ричард Мэнлав, Манар Мохамед, Маруази Мохаммед, Нидер Мохамед, Анна Диафе Ндиае, Медун Ндиае, Мохамен Мехди Оузанни, Чарльз Пембертон, Мохамед Кватиб, Лайла Руасс, Хью Росс

Перевод: Дублированный


Сюжет фильма

1884 год. Перед самой отправкой британских войск в Судан молодой офицер Гарри Фэвершем подает в отставку. Его близкие и родные воспринимают этот поступок как проявление трусости и Гарри, чтобы спасти свою честь, принимает решение тайно отправиться на африканский континент… У Гарри было все: отец - генерал, любимая девушка, лейтенантская должность в непобедимой английской армии, верные друзья. В один день он лишился всего, с ним осталось только четыре пера позора…






Качество: BDRip 720p (исходник Blu-ray)
Видео: 1280x536, 4 969 Кбит/сек, 23,976 кадр/сек, AVC, x264, High@L4.1, 0.302 Бит/[Пиксели*Кадры], 2pass
Аудио 1: AC3, 6 ch, 640 Кбит/с - Дублированный
Аудио 2: AC3, 6 ch, 640 Кбит/с - Английский

Чаптеры: есть
Субтитры: Русские
Продолжительность: 02:11:27
Автор Рипа:








Format : Matroska
Format version : Version 2
File size : 5.75 GiB
Duration : 2h 11mn
Overall bit rate : 6 249 Kbps
Movie name : Chetyre pera.(2002).BDRip.720p.[denis100]
Encoded date : UTC 2014-01-03 08:46:28
Writing application : mkvmerge v5.8.0 ('No Sleep / Pillow') built on Sep 2 2012 15:37:04
Writing library : libebml v1.2.3 + libmatroska v1.3.0

Video
ID : 1
Format : AVC
Format/Info : Advanced Video Codec
Format profile : High@L4.1
Format settings, CABAC : Yes
Format settings, ReFrames : 11 frames
Codec ID : V_MPEG4/ISO/AVC
Duration : 2h 11mn
Bit rate : 4 969 Kbps
Width : 1 280 pixels
Height : 536 pixels
Display aspect ratio : 2.40:1
Frame rate mode : Constant
Frame rate : 23.976 fps
Color space : YUV
Chroma subsampling : 4:2:0
Bit depth : 8 bits
Scan type : Progressive
Bits/(Pixel*Frame) : 0.302
Stream size : 4.45 GiB (78%)
Title : Chetyre pera.(2002).BDRip.720p от _denis_100
Writing library : x264 core 140 r2377 1ca7bb9
Encoding settings : cabac=1 / ref=11 / deblock=1:-3:-3 / analyse=0x3:0x133 / me=umh / subme=11 / psy=1 / psy_rd=1.00:0.10 / mixed_ref=1 / me_range=32 / chroma_me=1 / trellis=2 / 8x8dct=1 / cqm=0 / deadzone=21,11 / fast_pskip=0 / chroma_qp_offset=-3 / threads=6 / lookahead_threads=1 / sliced_threads=0 / nr=0 / decimate=0 / interlaced=0 / bluray_compat=0 / constrained_intra=0 / bframes=5 / b_pyramid=2 / b_adapt=2 / b_bias=0 / direct=3 / weightb=1 / open_gop=0 / weightp=2 / keyint=240 / keyint_min=23 / scenecut=40 / intra_refresh=0 / rc=2pass / mbtree=0 / bitrate=4969 / ratetol=1.0 / qcomp=0.60 / qpmin=0 / qpmax=69 / qpstep=4 / cplxblur=20.0 / qblur=0.5 / ip_ratio=1.40 / pb_ratio=1.30 / aq=1:0.90
Language : English
Default : Yes
Forced : No

Audio #1
ID : 2
Format : AC-3
Format/Info : Audio Coding 3
Mode extension : CM (complete main)
Format settings, Endianness : Big
Codec ID : A_AC3
Duration : 2h 11mn
Bit rate mode : Constant
Bit rate : 640 Kbps
Channel count : 6 channels
Channel positions : Front: L C R, Side: L R, LFE
Sampling rate : 48.0 KHz
Bit depth : 16 bits
Compression mode : Lossy
Stream size : 603 MiB (10%)
Title : Дублированный
Language : Russian
Default : Yes
Forced : No

Audio #2
ID : 3
Format : AC-3
Format/Info : Audio Coding 3
Mode extension : CM (complete main)
Format settings, Endianness : Big
Codec ID : A_AC3
Duration : 2h 11mn
Bit rate mode : Constant
Bit rate : 640 Kbps
Channel count : 6 channels
Channel positions : Front: L C R, Side: L R, LFE
Sampling rate : 48.0 KHz
Bit depth : 16 bits
Compression mode : Lossy
Stream size : 603 MiB (10%)
Title : английский
Language : English
Default : No
Forced : No

Text
ID : 4
Format : UTF-8
Codec ID : S_TEXT/UTF8
Codec ID/Info : UTF-8 Plain Text
Title : Русские
Language : Russian
Default : No
Forced : No

Menu
00:00:00.000 : en:00:00:00.000
00:10:11.861 : en:00:10:11.861
00:20:35.943 : en:00:20:35.943
00:33:24.461 : en:00:33:24.461
00:42:49.567 : en:00:42:49.567
00:52:53.629 : en:00:52:53.629
01:03:38.106 : en:01:03:38.106
01:21:36.141 : en:01:21:36.141
01:32:32.422 : en:01:32:32.422
01:40:37.907 : en:01:40:37.907
01:53:31.054 : en:01:53:31.054
02:05:56.048 : en:02:05:56.048
загрузка...
Правила, инструкции, FAQ!!!
Торрент  Добавлен [04 янв 2014, 23:25] Скачать торрент
Скачать торрент
[ Размер 29.15 КБ / Просмотров 3 ]

Статус  
 
Размер  5.75 ГБ
Приватный: Нет (DHT включён)
.torrent скачан  0
Как залить торрент? | Как скачать Torrent? | Как смотреть и слушать онлайн?  


     Отправить личное сообщение
   
Страница 1 из 1
Показать сообщения за:  Поле сортировки  
Начать новую тему Ответить на тему

   Похожие торренты   Автор   Ответы   Просмотры   Последнее сообщение 
В этой теме нет новых непрочитанных сообщений. Скачать торрент Четыре пера / The Four Feathers (Шекхар Капур / Shekhar Kapur) [2002, США, Великобритания, драма, мелодрама, приключения, военный, BDRip-AVC] Dub

в форуме Приключения, Размер: 2.19 ГБ, Здоровье: 100%

Anonymous

0
9|3

107
0

22 апр 2014, 11:38

Anonymous Перейти к последнему сообщению

В этой теме нет новых непрочитанных сообщений. Скачать торрент Проверен Четыре комнаты / Four Rooms (1995) BDRip 720p

в форуме 720p | 1080p, Размер: 4.98 ГБ, Здоровье: 100%

Гость

0
68|29

22
126

25 апр 2015, 20:25

Гость Перейти к последнему сообщению

В этой теме нет новых непрочитанных сообщений. Скачать торрент Проверен (Melodic Hard Rock) Spitting Feathers - Spitting Feathers - 2016, MP3, 320 kbps

в форуме AOR (Melodic Hard Rock, Arena rock), Размер: 113.88 МБ, Здоровье: 100%

Anonymous

0
7|2

1
1

08 окт 2016, 12:20

Anonymous Перейти к последнему сообщению

В этой теме нет новых непрочитанных сообщений. Скачать торрент Проверен (Psychedelic Blues Rock / Heavy Folk Rock) Dead Feathers - Dead Feathers (EP) - 2014, MP3, 320 kbps

в форуме Classic Rock & Hard Rock, Размер: 45.74 МБ, Здоровье: 0%

Anonymous

0
0|0

0
0

13 ноя 2016, 14:45

Anonymous Перейти к последнему сообщению

В этой теме нет новых непрочитанных сообщений. Скачать торрент Проверен Зеленецкий К. П. - Четыре повести / Четыре повѣсти [1837, PDF, RUS]

в форуме Русская литература, Размер: 9.09 МБ, Здоровье: 0%

Anonymous

0
0|0

4
0

07 сен 2016, 21:36

Anonymous Перейти к последнему сообщению



Сейчас этот форум просматривают: нет зарегистрированных пользователей и гости: 1


Вы не можете начинать темы
Вы не можете отвечать на сообщения
Вы не можете редактировать свои сообщения
Вы не можете удалять свои сообщения
Вы не можете добавлять вложения

Перейти:  

!ВНИМАНИЕ!
 Ресурс не предоставляет электронные версии произведений, а занимается лишь коллекционированием и каталогизацией ссылок, присылаемых и публикуемых на форуме нашими читателями. Если вы являетесь правообладателем какого-либо представленного материала и не желаете чтобы ссылка на него находилась в нашем каталоге, свяжитесь с нами и мы незамедлительно удалим её. Файлы для обмена на трекере предоставлены пользователями сайта, и администрация не несёт ответственности за их содержание. Просьба не заливать файлы, защищенные авторскими правами, а также файлы нелегального содержания!