На всех торрентах на трекере установлена скидка на скачивание в размере 100 процентов(а).
 Возможность скачивания торрента НЕ зависит от ограничений при низком ратио, низком аплоаде, требуемом ратио или требуемом аплоаде.


Начать новую тему Ответить на тему
Статистика раздачи
Размер: 1.82 ГБ | Добавлен: 02 янв 2014, 17:34 | Скачали: 0
Сидеров: 0  [0 байт/сек]    Личеров: 0  [0 байт/сек]
Пред. тема | След. тема 

Автор
Сообщение

СообщениеДобавлено: 02 янв 2014, 17:34 

Название: Свидетель
Оригинальное название: Eye of the Beholder
Год выхода: 1999
Жанр: Триллер, детектив
Режиссер: Стефан Эллиотт

В ролях: Юэн МакГрегор, Эшли Джадд, Патрик Бергин, Женевьев Бюжо, К.Д. Лэнг, Джейсон Пристли, Энн-Мари Браун, Кэйтлин Браун, Дэвид Нермэн, Стивен МакКарти

О фильме:
"Obsession is in the eye of the beholder."

Он — агент разведки по прозвищу Наблюдатель. Она — Джоанна Эрис подозреваемая в шантаже большого правительственного чиновника. Получив задание следить за ней, Он вдруг понимает, что выполнить его будет нелегко.

Эрис — не обычная шантажистка. Эрис — смертельно опасная и загадочная красавица, великолепно владеющая искусством перевоплощения и соблазнения. Неотступно следуя за ускользающей Джоанной, постоянно меняющей свой облик, Наблюдатель чувствует, что скоро будет уже не в силах противостоять магическому притяжению этой женщины, но, словно зачарованный взглядом змеи, движется навстречу своей гибели…



Страна: Канада, Великобритания, Австралия
Студия: Ambridge Film Partnership, Behaviour Worldwide, Destination Films
Продолжительность: 01:40:10
Перевод: Профессиональный (Многоголосый, закадровый) R5


Кодек: h.264
Качество: DVDRip-AVC
Видео: 704x568 (16:9) @ 1010x568 (анаморф), 25.000 fps, AVC, ~1700 Kbps, 0.170 bits/pixel
Звук:
Русский, 48.0 KHz, AC3, 6 ch, 448 Kbps
Английский, 48.0 KHz, AC3, 6 ch, 448 Kbps
Субтитры: Русские, VobSub

Источник видео R5

Общее
Уникальный идентификатор : 185290276406531706466223782772970976346 (0x8B659BF2CB9AB55F91B6DDE39E11745A)
Полное имя : D:FilmsSvidetel.1999.DVDRip-AVC.mkv
Формат : Matroska
Версия формата : Version 4 / Version 2
Размер файла : 1,82 Гбайт
Продолжительность : 1 ч. 40 м.
Общий поток : 2600 Кбит/сек
Дата кодирования : UTC 2014-01-02 12:39:53
Программа кодирования : mkvmerge v6.6.0 ('The Edge Of The In Between') built on Dec 1 2013 17:55:00
Библиотека кодирования : libebml v1.3.0 + libmatroska v1.4.1

Видео
Идентификатор : 1
Формат : AVC
Формат/Информация : Advanced Video Codec
Профиль формата : High@L4.1
Параметр CABAC формата : Да
Параметр ReFrames формата : 16 кадров
Идентификатор кодека : V_MPEG4/ISO/AVC
Продолжительность : 1 ч. 40 м.
Битрейт : 1700 Кбит/сек
Ширина : 704 пикселя
Высота : 568 пикселей
Соотношение сторон : 16:9
Соотношение сторон в оригинале : 16:9
Режим частоты кадров : Постоянный
Частота кадров : 25,000 кадров/сек
Цветовое пространство : YUV
Субдискретизация насыщенности : 4:2:0
Битовая глубина : 8 бит
Тип развёртки : Прогрессивная
Бит/(Пиксели*Кадры) : 0.170
Размер потока : 1,16 Гбайт (64%)
Библиотека кодирования : x264 core 138 r2358 9e941d1
Настройки программы : cabac=1 / ref=16 / deblock=1:0:0 / analyse=0x3:0x133 / me=umh / subme=10 / psy=1 / psy_rd=1.05:0.10 / mixed_ref=1 / me_range=32 / chroma_me=1 / trellis=2 / 8x8dct=1 / cqm=0 / deadzone=21,11 / fast_pskip=0 / chroma_qp_offset=-3 / threads=8 / lookahead_threads=2 / sliced_threads=0 / nr=0 / decimate=0 / interlaced=0 / bluray_compat=0 / constrained_intra=0 / bframes=11 / b_pyramid=2 / b_adapt=2 / b_bias=0 / direct=3 / weightb=1 / open_gop=0 / weightp=2 / keyint=250 / keyint_min=25 / scenecut=40 / intra_refresh=0 / rc_lookahead=60 / rc=2pass / mbtree=0 / bitrate=1700 / ratetol=1.0 / qcomp=0.60 / qpmin=0 / qpmax=60 / qpstep=4 / cplxblur=20.0 / qblur=0.5 / vbv_maxrate=50000 / vbv_bufsize=62500 / nal_hrd=none / ip_ratio=1.40 / pb_ratio=1.30 / aq=1:1.00
Default : Нет
Forced : Нет
Коэффициенты матрицы : BT.601

Аудио #1
Идентификатор : 2
Формат : AC-3
Формат/Информация : Audio Coding 3
Расширение режима : CM (complete main)
Параметр Endianness формата : Big
Идентификатор кодека : A_AC3
Продолжительность : 1 ч. 40 м.
Вид битрейта : Постоянный
Битрейт : 448 Кбит/сек
Каналы : 6 каналов
Расположение каналов : Front: L C R, Side: L R, LFE
Частота : 48,0 КГц
Битовая глубина : 16 бит
Метод сжатия : С потерями
Размер потока : 321 Мбайт (17%)
Язык : Russian
Default : Да
Forced : Нет

Аудио #2
Идентификатор : 3
Формат : AC-3
Формат/Информация : Audio Coding 3
Расширение режима : CM (complete main)
Параметр Endianness формата : Big
Идентификатор кодека : A_AC3
Продолжительность : 1 ч. 40 м.
Вид битрейта : Постоянный
Битрейт : 448 Кбит/сек
Каналы : 6 каналов
Расположение каналов : Front: L C R, Side: L R, LFE
Частота : 48,0 КГц
Битовая глубина : 16 бит
Метод сжатия : С потерями
Размер потока : 321 Мбайт (17%)
Язык : English
Default : Нет
Forced : Нет

Текст
Идентификатор : 4
Формат : VobSub
Режим смешивания : zlib
Идентификатор кодека : S_VOBSUB
Идентификатор кодека/Информация : The same subtitle format used on DVDs
Язык : Russian
Default : Нет
Forced : Нет

Меню
00:00:00.000 : en:Chapter 01
00:04:47.560 : en:Chapter 02
00:12:22.040 : en:Chapter 03
00:17:07.520 : en:Chapter 04
00:21:34.280 : en:Chapter 05
00:27:37.240 : en:Chapter 06
00:33:46.960 : en:Chapter 07
00:39:48.880 : en:Chapter 08
00:45:52.360 : en:Chapter 09
00:51:30.880 : en:Chapter 10
00:56:46.520 : en:Chapter 11
01:02:17.760 : en:Chapter 12
01:09:26.760 : en:Chapter 13
01:15:19.320 : en:Chapter 14
01:19:08.640 : en:Chapter 15
01:23:17.200 : en:Chapter 16
01:30:56.880 : en:Chapter 17
01:36:51.520 : en:Chapter 18



Релиз от: Temperest
загрузка...
Правила, инструкции, FAQ!!!
Торрент  Добавлен [02 янв 2014, 17:34] Скачать торрент
Скачать торрент
[ Размер 18.71 КБ / Просмотров 2 ]

Статус  
 
Размер  1.82 ГБ
Приватный: Нет (DHT включён)
.torrent скачан  0
Как залить торрент? | Как скачать Torrent? | Как смотреть и слушать онлайн?  


     Отправить личное сообщение
   
Страница 1 из 1
Показать сообщения за:  Поле сортировки  
Начать новую тему Ответить на тему

   Похожие торренты   Автор   Ответы   Просмотры   Последнее сообщение 
В этой теме нет новых непрочитанных сообщений. Скачать торрент Проверен Свидетель / Eye of the Beholder (1999) DVDRip | P

в форуме Триллеры, Размер: 1.45 ГБ, Здоровье: 100%

Гость

0
114|38

97
11

16 май 2015, 21:47

Гость Перейти к последнему сообщению

В этой теме нет новых непрочитанных сообщений. Скачать торрент Проверен (Heavy Metal) Eyes Of Beholder - Time Is Now - 2014, MP3, 320 kbps

в форуме Heavy, Power, Progressive (Metal), Размер: 87.84 МБ, Здоровье: 100%

Anonymous

0
1|0

0
0

09 окт 2016, 09:19

Anonymous Перейти к последнему сообщению

В этой теме нет новых непрочитанных сообщений. Скачать торрент Проверен (Progressive Metal, Djent) Eye of the Beholder - Fading Signals - 2013, MP3, 320 kbps

в форуме Heavy, Power, Progressive (Metal), Размер: 99.85 МБ, Здоровье: 100%

Anonymous

0
2|1

0
0

08 окт 2016, 18:19

Anonymous Перейти к последнему сообщению

В этой теме нет новых непрочитанных сообщений. Скачать торрент Проверен (Melodic Power Metal) Beholder - The Legend Begins - 2001, APE (image+.cue), lossless

в форуме Heavy, Power, Progressive (Metal), Размер: 328.35 МБ, Здоровье: 100%

Anonymous

0
2|1

0
0

10 окт 2016, 22:38

Anonymous Перейти к последнему сообщению

В этой теме нет новых непрочитанных сообщений. Скачать торрент Проверен (Heavy Metal / Hard Rock) Black Succubi - Eye Of The Beholder - 2013, MP3 (tracks), 320 kbps

в форуме Heavy, Power, Progressive (Metal), Размер: 113.68 МБ, Здоровье: 100%

Anonymous

0
1|0

0
0

08 окт 2016, 18:22

Anonymous Перейти к последнему сообщению



Сейчас этот форум просматривают: нет зарегистрированных пользователей и гости: 3


Вы не можете начинать темы
Вы не можете отвечать на сообщения
Вы не можете редактировать свои сообщения
Вы не можете удалять свои сообщения
Вы не можете добавлять вложения

Перейти:  

!ВНИМАНИЕ!
 Ресурс не предоставляет электронные версии произведений, а занимается лишь коллекционированием и каталогизацией ссылок, присылаемых и публикуемых на форуме нашими читателями. Если вы являетесь правообладателем какого-либо представленного материала и не желаете чтобы ссылка на него находилась в нашем каталоге, свяжитесь с нами и мы незамедлительно удалим её. Файлы для обмена на трекере предоставлены пользователями сайта, и администрация не несёт ответственности за их содержание. Просьба не заливать файлы, защищенные авторскими правами, а также файлы нелегального содержания!