На всех торрентах на трекере установлена скидка на скачивание в размере 100 процентов(а).
 Возможность скачивания торрента НЕ зависит от ограничений при низком ратио, низком аплоаде, требуемом ратио или требуемом аплоаде.


Начать новую тему Ответить на тему
Статистика раздачи
Размер: 13.02 ГБ | Добавлен: 02 янв 2014, 11:29 | Скачали: 0
Сидеров: 0  [0 байт/сек]    Личеров: 0  [0 байт/сек]
Пред. тема | След. тема 

Автор
Сообщение

СообщениеДобавлено: 02 янв 2014, 11:29 

Название: Дар
Оригинальное название: The Gift
Год выпуска: 2000
Жанр: Фэнтези, триллер, драма, криминал, детектив
Выпущено: США, Alphaville Films, Lakeshore Entertainment
Режиссер: Сэм Рэйми

В ролях: Кейт Бланшетт, Джованни Рибизи, Киану Ривз, Кэти Холмс, Грег Киннер, Хилари Суэнк, Майкл Джитер, Ким Диккенс, Гэри Коул, Розмари Харрис

О фильме: Вдова Энни Уилсон наделена редким даром ясновидения. И когда происходит таинственное убийство девушки из богатой семьи, её талант приходится как нельзя кстати в установлении личности убийцы. Но всё не так просто, как кажется. Дар опасен для своего носителя, разрушает психику героини и не даёт однозначных ответов. Тем временем круг подозреваемых расширяется с каждым днём, вовлекая в эпицентр событий всё новых персонажей, каждый из которых может быть убийцей. И чем дальше продвигается Энни в своём расследовании, тем чётче осознает, что поиск правды может сокрушить её разум.

Качество: BDRip 1080p
Продолжительность: 01:51:49

Видео: MPEG-4 AVC, 12.9 Мбит/с, 1914x1030
Аудио 1: русский, 48 kHz, AC3, 6 ch, 448 kbps avg, [Профессиональный многоголосый]
Аудио 2: русский, 48 kHz, DTS, 6 ch, 1509 kbps avg, [Авторский, Юрий Живов]
Аудио 3: английский, 48 kHz, DTS, 6 ch, 1509 kbps avg, [Оригинал]
Субтитры 1: русские
Субтитры 2: английские




Сатурн, 2001 год
Номинации (5):
Лучший фильм ужасов
Лучшая актриса (Кейт Бланшетт)
Лучший актер второго плана (Джованни Рибизи)
Лучшая актриса второго плана (Хилари Суэнк)
Лучший сценарий
Общее
Уникальный идентификатор : 180492796983495046357513315693417052024 (0x87C9A5F36DA8B2BCB290E82DE1F5B778)
Полное имя : E:VideoDar.2000.x264.BDRip.1080p.mkv
Формат : Matroska
Версия формата : Version 4 / Version 2
Размер файла : 13,0 Гбайт
Продолжительность : 1 ч. 51 м.
Общий поток : 16,7 Мбит/сек
Название фильма : Дар / The Gift / 2000 / BDRip -- STarankov
Дата кодирования : UTC 2014-01-02 05:49:51
Программа кодирования : mkvmerge v6.6.0 ('The Edge Of The In Between') built on Dec 1 2013 17:55:00
Библиотека кодирования : libebml v1.3.0 + libmatroska v1.4.1

Видео
Идентификатор : 1
Формат : AVC
Формат/Информация : Advanced Video Codec
Профиль формата : High@L4.1
Параметр CABAC формата : Да
Параметр ReFrames формата : 4 кадра
Идентификатор кодека : V_MPEG4/ISO/AVC
Продолжительность : 1 ч. 51 м.
Битрейт : 12,9 Мбит/сек
Ширина : 1914 пикселей
Высота : 1030 пикселей
Соотношение сторон : 1,85:1
Режим частоты кадров : Постоянный
Частота кадров : 24,000 кадра/сек
Цветовое пространство : YUV
Субдискретизация насыщенности : 4:2:0
Битовая глубина : 8 бит
Тип развёртки : Прогрессивная
Бит/(Пиксели*Кадры) : 0.272
Размер потока : 10,1 Гбайт (77%)
Библиотека кодирования : x264 core 138 r2358 9e941d1
Настройки программы : cabac=1 / ref=4 / deblock=1:-1:-1 / analyse=0x3:0x113 / me=umh / subme=10 / psy=1 / psy_rd=1.00:0.15 / mixed_ref=1 / me_range=24 / chroma_me=1 / trellis=2 / 8x8dct=1 / cqm=0 / deadzone=21,11 / fast_pskip=0 / chroma_qp_offset=-3 / threads=6 / lookahead_threads=1 / sliced_threads=0 / nr=0 / decimate=1 / interlaced=0 / bluray_compat=0 / constrained_intra=0 / bframes=8 / b_pyramid=2 / b_adapt=2 / b_bias=0 / direct=1 / weightb=1 / open_gop=0 / weightp=2 / keyint=230 / keyint_min=23 / scenecut=40 / intra_refresh=0 / rc_lookahead=40 / rc=crf / mbtree=0 / crf=19.8 / qcomp=0.60 / qpmin=0 / qpmax=69 / qpstep=4 / vbv_maxrate=50000 / vbv_bufsize=62500 / crf_max=0.0 / nal_hrd=none / ip_ratio=1.40 / pb_ratio=1.30 / aq=1:1.00
Язык : English
Default : Да
Forced : Нет

Аудио #1
Идентификатор : 2
Формат : AC-3
Формат/Информация : Audio Coding 3
Расширение режима : CM (complete main)
Параметр Endianness формата : Big
Идентификатор кодека : A_AC3
Продолжительность : 1 ч. 51 м.
Вид битрейта : Постоянный
Битрейт : 448 Кбит/сек
Каналы : 6 каналов
Расположение каналов : Front: L C R, Side: L R, LFE
Частота : 48,0 КГц
Битовая глубина : 16 бит
Метод сжатия : С потерями
Размер потока : 358 Мбайт (3%)
Заголовок : MVO
Язык : Russian
Default : Да
Forced : Нет

Аудио #2
Идентификатор : 3
Формат : DTS
Формат/Информация : Digital Theater Systems
Режим : 16
Параметр Endianness формата : Big
Идентификатор кодека : A_DTS
Продолжительность : 1 ч. 51 м.
Вид битрейта : Постоянный
Битрейт : 1509 Кбит/сек
Каналы : 6 каналов
Расположение каналов : Front: L C R, Side: L R, LFE
Частота : 48,0 КГц
Битовая глубина : 16 бит
Метод сжатия : С потерями
Размер потока : 1,18 Гбайт (9%)
Заголовок : AVO (Юрий Живов)
Язык : Russian
Default : Нет
Forced : Нет

Аудио #3
Идентификатор : 4
Формат : DTS
Формат/Информация : Digital Theater Systems
Режим : 16
Параметр Endianness формата : Big
Идентификатор кодека : A_DTS
Продолжительность : 1 ч. 51 м.
Вид битрейта : Постоянный
Битрейт : 1509 Кбит/сек
Каналы : 6 каналов
Расположение каналов : Front: L C R, Side: L R, LFE
Частота : 48,0 КГц
Битовая глубина : 16 бит
Метод сжатия : С потерями
Размер потока : 1,18 Гбайт (9%)
Заголовок : Original
Язык : English
Default : Нет
Forced : Нет

Текст #1
Идентификатор : 5
Формат : UTF-8
Идентификатор кодека : S_TEXT/UTF8
Идентификатор кодека/Информация : UTF-8 Plain Text
Заголовок : русский
Язык : Russian
Default : Нет
Forced : Нет

Текст #2
Идентификатор : 6
Формат : UTF-8
Идентификатор кодека : S_TEXT/UTF8
Идентификатор кодека/Информация : UTF-8 Plain Text
Заголовок : английский
Default : Нет
Forced : Нет

---[Information] [01.01.2014 15:50:41] avs [info]: 1914x1030p 1:1 @ 24/1 fps (cfr)
---[Information] [01.01.2014 15:50:41] x264 [info]: using SAR=1/1
---[Information] [01.01.2014 15:50:41] x264 [info]: using cpu capabilities: MMX2 SSE2Fast SSSE3 SSE4.2
---[Information] [01.01.2014 15:50:41] x264 [info]: profile High, level 4.1
---[Information] [02.01.2014 12:14:47] x264 [info]: frame I:1051 Avg QP:18.37 size:167486
---[Information] [02.01.2014 12:14:47] x264 [info]: frame P:29459 Avg QP:19.09 size:100715
---[Information] [02.01.2014 12:14:47] x264 [info]: frame B:130512 Avg QP:20.97 size: 60728
---[Information] [02.01.2014 12:14:47] x264 [info]: consecutive B-frames: 1.1% 0.8% 3.0% 5.8% 12.6% 66.1% 7.0% 1.9% 1.6%
---[Information] [02.01.2014 12:14:47] x264 [info]: mb I I16..4: 2.0% 94.8% 3.2%
---[Information] [02.01.2014 12:14:47] x264 [info]: mb P I16..4: 1.8% 43.1% 0.8% P16..4: 29.6% 18.0% 6.2% 0.0% 0.0% skip: 0.5%
---[Information] [02.01.2014 12:14:47] x264 [info]: mb B I16..4: 0.5% 13.7% 0.1% B16..8: 38.3% 13.3% 2.8% direct:14.5% skip:16.8% L0:46.0% L1:44.4% BI: 9.7%
---[Information] [02.01.2014 12:14:47] x264 [info]: 8x8 transform intra:95.3% inter:66.2%
---[Information] [02.01.2014 12:14:47] x264 [info]: coded y,uvDC,uvAC intra: 91.5% 83.2% 43.1% inter: 49.3% 41.0% 2.5%
---[Information] [02.01.2014 12:14:47] x264 [info]: i16 v,h,dc,p: 57% 16% 16% 11%
---[Information] [02.01.2014 12:14:47] x264 [info]: i8 v,h,dc,ddl,ddr,vr,hd,vl,hu: 13% 7% 20% 8% 10% 12% 8% 12% 11%
---[Information] [02.01.2014 12:14:47] x264 [info]: i4 v,h,dc,ddl,ddr,vr,hd,vl,hu: 17% 6% 5% 9% 14% 17% 11% 12% 9%
---[Information] [02.01.2014 12:14:47] x264 [info]: i8c dc,h,v,p: 51% 22% 20% 8%
---[Information] [02.01.2014 12:14:47] x264 [info]: Weighted P-Frames: Y:5.2% UV:2.7%
---[Information] [02.01.2014 12:14:47] x264 [info]: ref P L0: 45.4% 10.3% 30.4% 13.3% 0.7% 0.0%
---[Information] [02.01.2014 12:14:47] x264 [info]: ref B L0: 81.8% 14.6% 3.6%
---[Information] [02.01.2014 12:14:47] x264 [info]: ref B L1: 89.1% 10.9%
---[Information] [02.01.2014 12:14:47] x264 [info]: kb/s:13198.22
---[Information] [02.01.2014 12:14:47] encoded 161022 frames, 2.19 fps, 13198.22 kb/s
--[Information] [02.01.2014 12:14:53] Final statistics
---[Information] [02.01.2014 12:14:53] Constant Quality Mode: Quality 19 computed...
---[Information] [02.01.2014 12:14:53] Video Bitrate Obtained (approximate): 13199 kbit/s
--[Information] [02.01.2014 12:14:53] MediaInfo
---[Information] File: E:RipDar.2000.x264.BDRipDar.2000.x264.BDRip.1080p.mkv


загрузка...
Правила, инструкции, FAQ!!!
Торрент  Добавлен [02 янв 2014, 11:29] Скачать торрент
Скачать торрент
[ Размер 32.96 КБ / Просмотров 8 ]

Статус  
 
Размер  13.02 ГБ
Приватный: Нет (DHT включён)
.torrent скачан  0
Как залить торрент? | Как скачать Torrent? | Как смотреть и слушать онлайн?  


     Отправить личное сообщение
   
Страница 1 из 1
Показать сообщения за:  Поле сортировки  
Начать новую тему Ответить на тему

   Похожие торренты   Автор   Ответы   Просмотры   Последнее сообщение 
В этой теме нет новых непрочитанных сообщений. Скачать торрент Проверен Подарок / The Gift (2015) BDRip | НТВ+

в форуме Триллеры, Размер: 1.41 ГБ, Здоровье: 100%

Гость

0
277|96

150
270

07 фев 2016, 18:31

Гость Перейти к последнему сообщению

В этой теме нет новых непрочитанных сообщений. Скачать торрент Проверен (Hard Rock / Kraut Rock) Gift - Gift - 1972, FLAC (image+.cue), lossless

в форуме Classic Rock & Hard Rock, Размер: 244.11 МБ, Здоровье: 0%

Anonymous

0
0|0

0
0

05 сен 2016, 19:15

Anonymous Перейти к последнему сообщению

В этой теме нет новых непрочитанных сообщений. Скачать торрент Проверен Ю-571 / U-571 (2000) BDRip 1080p | D, A | Open Matte

в форуме 720p | 1080p, Размер: 19.72 ГБ, Здоровье: 100%

Гость

0
23|0

52
140

20 дек 2014, 15:36

Гость Перейти к последнему сообщению

В этой теме нет новых непрочитанных сообщений. Скачать торрент Проверен Траффик / Traffic (2000) BDRip 1080p | D, P, A

в форуме 720p | 1080p, Размер: 20.83 ГБ, Здоровье: 100%

Anonymous

0
5|2

39
0

11 апр 2015, 12:34

Anonymous Перейти к последнему сообщению

В этой теме нет новых непрочитанных сообщений. Скачать торрент Проверен Сверхновая / Supernova (2000) BDRip 1080p

в форуме 720p | 1080p, Размер: 7.83 ГБ, Здоровье: 100%

Гость

0
86|7

38
834

16 фев 2015, 22:53

Гость Перейти к последнему сообщению



Сейчас этот форум просматривают: нет зарегистрированных пользователей и гости: 1


Вы не можете начинать темы
Вы не можете отвечать на сообщения
Вы не можете редактировать свои сообщения
Вы не можете удалять свои сообщения
Вы не можете добавлять вложения

Перейти:  

!ВНИМАНИЕ!
 Ресурс не предоставляет электронные версии произведений, а занимается лишь коллекционированием и каталогизацией ссылок, присылаемых и публикуемых на форуме нашими читателями. Если вы являетесь правообладателем какого-либо представленного материала и не желаете чтобы ссылка на него находилась в нашем каталоге, свяжитесь с нами и мы незамедлительно удалим её. Файлы для обмена на трекере предоставлены пользователями сайта, и администрация не несёт ответственности за их содержание. Просьба не заливать файлы, защищенные авторскими правами, а также файлы нелегального содержания!