На всех торрентах на трекере установлена скидка на скачивание в размере 100 процентов(а).
 Возможность скачивания торрента НЕ зависит от ограничений при низком ратио, низком аплоаде, требуемом ратио или требуемом аплоаде.


Начать новую тему Ответить на тему
Статистика раздачи
Размер: 2.05 ГБ | Добавлен: 31 дек 2013, 11:23 | Скачали: 4
Сидеров: 9  [0 байт/сек]    Личеров: 0  [0 байт/сек]
Пред. тема | След. тема 

Автор
Сообщение

СообщениеДобавлено: 31 дек 2013, 11:23 

Название: Мой лучший любовник
Оригинальное название: Prime
Год выхода: 2005
Жанр: драма, мелодрама, комедия
Режиссер: Бен Янгер

В ролях: Ума Турман, Брайан Гринберг, Мэрил Стрип, Джон Абрахамс, Джерри Эдлер, Дорис Билэк, Мадхур Джэффри, Зэк Орт, Джон Ротман, Обри Доллар, Энни Париссе...

О фильме: 23-летний художник Дэйв влюбляется в 37-летнюю Рафи, обитательницу Нью-Йорка и деловую женщину, которая несколько обеспокоена таким подарком судьбы и пытается разобраться в ситуации с помощью своего психотерапевта Лизы. В принципе, она не против какой-то романтической истории, но уж слишком велика разница в возрасте. Психотерапевт убеждает Рафи, что в ее возрасте могут возникнуть всяческие кризисы, и потому надо без задней мысли просто развлечься и постараться получить удовольствие. Однако все меняется, когда Лиза узнает, что любовь с Рафи крутит ее собственный сын.


Страна: США
Продолжительность: 01:45:22
Перевод: Дублированный, Оригинал (Английский)


Кодек: x.264
Качество: BDRip-AVC
Видео: 1024x576 (16:9), 23.976 fps, 2019 kbps, 0.143 bit/pixel
Аудио #1: 48 kHz, AC3 Dolby Digital, 6 ch, ~384.00 kbps | Русский
Аудио #2: 48 kHz, AC3 Dolby Digital, 6 ch, ~384.00 kbps | Английский
Субтитры: Русские, Английские (отключаемые)

&

Общее
Уникальный идентификатор : 236136516388106636051622462766435747238 (0xB1A63D212DB41AF79D354EE347BB45A6)
Полное имя : D:Prime.2005.BDRip-AVC.mkv
Формат : Matroska
Версия формата : Version 4 / Version 2
Размер файла : 2,05 Гбайт
Продолжительность : 1 ч. 45 м.
Общий поток : 2789 Кбит/сек
Название фильма : Мой лучший любовник / Prime (2005) BDRip-AVC rip by Rulya74
Дата кодирования : UTC 2013-12-31 06:54:26
Программа кодирования : mkvmerge v6.5.0 ('Isn't she lovely') built on Oct 20 2013 12:50:05
Библиотека кодирования : libebml v1.3.0 + libmatroska v1.4.1

Видео
Идентификатор : 1
Формат : AVC
Формат/Информация : Advanced Video Codec
Профиль формата : High@L4.1
Параметр CABAC формата : Да
Параметр ReFrames формата : 12 кадров
Идентификатор кодека : V_MPEG4/ISO/AVC
Продолжительность : 1 ч. 45 м.
Битрейт : 2019 Кбит/сек
Ширина : 1024 пикселя
Высота : 576 пикселей
Соотношение сторон : 16:9
Режим частоты кадров : Постоянный
Частота кадров : 23,976 кадра/сек
Цветовое пространство : YUV
Субдискретизация насыщенности : 4:2:0
Битовая глубина : 8 бит
Тип развёртки : Прогрессивная
Бит/(Пиксели*Кадры) : 0.143
Размер потока : 1,45 Гбайт (70%)
Библиотека кодирования : x264 core 138 r2358 9e941d1
Настройки программы : cabac=1 / ref=12 / deblock=1:-3:-3 / analyse=0x3:0x113 / me=umh / subme=11 / psy=1 / psy_rd=1.00:0.00 / mixed_ref=1 / me_range=48 / chroma_me=1 / trellis=2 / 8x8dct=1 / cqm=0 / deadzone=21,11 / fast_pskip=0 / chroma_qp_offset=-2 / threads=4 / lookahead_threads=1 / sliced_threads=0 / nr=0 / decimate=1 / interlaced=0 / bluray_compat=0 / constrained_intra=0 / bframes=9 / b_pyramid=2 / b_adapt=1 / b_bias=0 / direct=3 / weightb=1 / open_gop=0 / weightp=2 / keyint=240 / keyint_min=23 / scenecut=40 / intra_refresh=0 / rc_lookahead=40 / rc=2pass / mbtree=1 / bitrate=2019 / ratetol=1.0 / qcomp=0.60 / qpmin=0 / qpmax=69 / qpstep=4 / cplxblur=20.0 / qblur=0.5 / vbv_maxrate=62500 / vbv_bufsize=78125 / nal_hrd=none / ip_ratio=1.40 / aq=1:1.00
Default : Да
Forced : Нет

Аудио #1
Идентификатор : 2
Формат : AC-3
Формат/Информация : Audio Coding 3
Расширение режима : CM (complete main)
Параметр Endianness формата : Big
Идентификатор кодека : A_AC3
Продолжительность : 1 ч. 45 м.
Вид битрейта : Постоянный
Битрейт : 384 Кбит/сек
Каналы : 6 каналов
Расположение каналов : Front: L C R, Side: L R, LFE
Частота : 48,0 КГц
Битовая глубина : 16 бит
Метод сжатия : С потерями
Размер потока : 289 Мбайт (14%)
Заголовок : Дублированный
Язык : Russian
Default : Да
Forced : Нет

Аудио #2
Идентификатор : 3
Формат : AC-3
Формат/Информация : Audio Coding 3
Расширение режима : CM (complete main)
Параметр Endianness формата : Big
Идентификатор кодека : A_AC3
Продолжительность : 1 ч. 45 м.
Вид битрейта : Постоянный
Битрейт : 384 Кбит/сек
Каналы : 6 каналов
Расположение каналов : Front: L C R, Side: L R, LFE
Частота : 48,0 КГц
Битовая глубина : 16 бит
Метод сжатия : С потерями
Размер потока : 289 Мбайт (14%)
Заголовок : Оригинал
Язык : English
Default : Нет
Forced : Нет

Текст #1
Идентификатор : 4
Формат : UTF-8
Идентификатор кодека : S_TEXT/UTF8
Идентификатор кодека/Информация : UTF-8 Plain Text
Язык : Russian
Default : Да
Forced : Нет

Текст #2
Идентификатор : 5
Формат : UTF-8
Идентификатор кодека : S_TEXT/UTF8
Идентификатор кодека/Информация : UTF-8 Plain Text
Язык : English
Default : Нет
Forced : Нет

Меню
00:00:00.000 : :Chapter 01
00:07:03.589 : :Chapter 02
00:16:30.614 : :Chapter 03
00:25:49.297 : :Chapter 04
00:34:24.187 : :Chapter 05
00:45:35.482 : :Chapter 06
00:52:46.079 : :Chapter 07
01:00:56.444 : :Chapter 08
01:10:09.914 : :Chapter 09
01:21:05.694 : :Chapter 10
01:29:26.652 : :Chapter 11
01:37:52.616 : :Chapter 12

загрузка...
Правила, инструкции, FAQ!!!
Торрент  Добавлен [31 дек 2013, 11:23] Скачать торрент
Скачать торрент
[ Размер 10.67 КБ / Просмотров 8 ]

Статус  
 
Размер  2.05 ГБ
Приватный: Нет (DHT включён)
.torrent скачан  4
Как залить торрент? | Как скачать Torrent? | Как смотреть и слушать онлайн?  


     Отправить личное сообщение
   
Страница 1 из 1
Показать сообщения за:  Поле сортировки  
Начать новую тему Ответить на тему

   Похожие торренты   Автор   Ответы   Просмотры   Последнее сообщение 
В этой теме нет новых непрочитанных сообщений. Скачать торрент Любовник / L’amant / The Lover (1992) BDRip 720p

в форуме 720p | 1080p, Размер: 5.59 ГБ, Здоровье: 100%

Anonymous

0
16|3

48
67

26 мар 2014, 11:34

Anonymous Перейти к последнему сообщению

В этой теме нет новых непрочитанных сообщений. Скачать торрент Проверен (Power Metal (Female Vocal)) Helion Prime - Helion Prime - 2016, MP3, 320 kbps

в форуме Heavy, Power, Progressive (Metal), Размер: 111.6 МБ, Здоровье: 0%

Anonymous

0
0|0

0
0

09 окт 2016, 20:55

Anonymous Перейти к последнему сообщению

В этой теме нет новых непрочитанных сообщений. Скачать торрент Prime Circle - 4 альбома (2005 — 2012) [FLAC|Lossless]<Rock>

в форуме Рок, Панк, Метал, Альтернатива, Размер: 1.31 ГБ, Здоровье: ???%

Anonymous

0
0|2

52
0

24 мар 2014, 11:38

Anonymous Перейти к последнему сообщению

В этой теме нет новых непрочитанных сообщений. Скачать торрент Проверен (Hard & Heavy) Rik Priem's Prime - Rik Priem's Prime - 2014, MP3, 320 kbps

в форуме Classic Rock & Hard Rock, Размер: 136.65 МБ, Здоровье: 0%

Anonymous

0
0|0

0
0

14 ноя 2016, 17:38

Anonymous Перейти к последнему сообщению

В этой теме нет новых непрочитанных сообщений. Скачать торрент Проверен (Melodic Rock | AOR) Prime Suspect - Prime Suspect - 2010, MP3, 320 kbps

в форуме AOR (Melodic Hard Rock, Arena rock), Размер: 124.42 МБ, Здоровье: 0%

Anonymous

0
0|0

0
0

08 окт 2016, 00:35

Anonymous Перейти к последнему сообщению



Сейчас этот форум просматривают: нет зарегистрированных пользователей и гости: 2


Вы не можете начинать темы
Вы не можете отвечать на сообщения
Вы не можете редактировать свои сообщения
Вы не можете удалять свои сообщения
Вы не можете добавлять вложения

Перейти:  

!ВНИМАНИЕ!
 Ресурс не предоставляет электронные версии произведений, а занимается лишь коллекционированием и каталогизацией ссылок, присылаемых и публикуемых на форуме нашими читателями. Если вы являетесь правообладателем какого-либо представленного материала и не желаете чтобы ссылка на него находилась в нашем каталоге, свяжитесь с нами и мы незамедлительно удалим её. Файлы для обмена на трекере предоставлены пользователями сайта, и администрация не несёт ответственности за их содержание. Просьба не заливать файлы, защищенные авторскими правами, а также файлы нелегального содержания!