На всех торрентах на трекере установлена скидка на скачивание в размере 100 процентов(а).
 Возможность скачивания торрента НЕ зависит от ограничений при низком ратио, низком аплоаде, требуемом ратио или требуемом аплоаде.


Начать новую тему Ответить на тему
Статистика раздачи
Размер: 14.47 ГБ | Добавлен: 31 дек 2013, 10:26 | Скачали: 0
Сидеров: 1  [0 байт/сек]    Личеров: 0  [0 байт/сек]
Пред. тема | След. тема 

Автор
Сообщение

СообщениеДобавлено: 31 дек 2013, 10:26 

Название: Вам письмо
Оригинальное название: You've Got Mail
Год выпуска: 1998
Жанр: Драма, мелодрама, комедия
Выпущено: США, Warner Bros. Pictures
Режиссер: Нора Эфрон

В ролях: Том Хэнкс, Мег Райан, Грег Киннер, Паркер Поузи, Жан Степлтон, Стив Зан, Хезер Бёрнс, Дэйв Шапелл, Дэбни Коулмэн, Джон Рэндольф, Дебора Раш, Холли Херш, Джеффри Скаперротта, Кэра Сеймур, Кэти Финнеран, Майкл Бадалукко, Винни Кокс, Брюс Джей Фридман, Сара Рамирез, Ховард Шпигель, Дайан Соколов, Джули Касс, Рейко Эйлсворт, Нина Зои Лам, Мэгги Мерфи, Мишель Блэйкли, Мередит Уайт, Дайян Дрейер, Лейла Николс, Мэри А. Келли, Крис Мессина, Андре Соглиуззо, Ричард Коэн, Ник Браун, Билл МакХью, Сантьяго Киньонес, Линн Гроссман, Николь Бернадетт, Джейн Адамс, Элвуд Эдвардс, Альфонсо Гомез-Рейон, Гидеон Джейкобс, Брик Мэйсон, Скотт Уолкер Мулин, Кэти Сагона

О фильме: Джо Фокс и Кэтлин Келли переписываются через Интернет. У Джо есть девушка, у Кэтлин — парень, но излить душу они могут лишь друг другу. Кэтлин принадлежит маленький книжный магазинчик детской литературы под названием «Магазин за углом», перешедший ей от матери. Для неё, трёх её сотрудников и покупателей это не просто место работы — это оазис тепла, человечности и культуры. Джо владеет сетью огромных книжных супермаркетов «Фокс и сыновья». Он открывает такой комплекс рядом с магазином Кэтлин и заходит к ней якобы купить несколько книжек для детей. Так состоялось их «живое» знакомство. Чуть позже Кэтлин узнаёт, что Джо и есть владелец супермаркета, грозящего ей неизбежным разорением — цены там намного ниже. Естественно, она сразу же возненавидела бездушного конкурента. А в Интернете их роман продолжался…

Качество: BDRip 1080p
Продолжительность: 01:59:24

Видео: MPEG-4 AVC, 12.4 Mбит/с, 1920x1080
Аудио 1: русский, 48 kHz, AC3, 6 ch, 384 kbps avg, [Дублированный]
Аудио 2: русский, 48 kHz, DTS, 6 ch, 1509 kbps avg, [Авторский, Андрей Гаврилов]
Аудио 3: русский, 48 kHz, AC3, 6 ch, 384 kbps avg, [Авторский, Василий Горчаков]
Аудио 4: русский, 48 kHz, DTS, 6 ch, 768 kbps avg, [Авторский, Юрий Живов]
Аудио 5: русский, 48 kHz, AC3, 2 ch, 192 kbps avg, [Авторский, Александр Кашкин (Первомайский)]

Внешние файлы
Аудио: русский, 48 kHz, AC3, 6 ch, 448 kbps avg, [Авторский, Андрей Гаврилов]
Аудио: русский, 48 kHz, AC3, 6 ch, 448 kbps avg, [Авторский, Юрий Живов]
Аудио: английский, 48 kHz, DTS, 6 ch, 768 kbps avg, [Оригинал]
Субтитры: русские
Субтитры: английские

Имеются неименованные главы/чаптеры.




Золотой глобус, 1999 год
Номинации (1):
Лучшая женская роль (комедия или мюзикл) (Мег Райан)
Общее
Полное имя : E:VideoVam.pismo.1998.x264.BDRip.1080pVam.pismo.1998.AVO.rus.А.Гаврилов.ac3
Формат : AC-3
Формат/Информация : Audio Coding 3
Размер файла : 383 Мбайт
Продолжительность : 1 ч. 59 м.
Режим общего битрейта : Постоянный
Общий поток : 448 Кбит/сек

Аудио
Формат : AC-3
Формат/Информация : Audio Coding 3
Расширение режима : CM (complete main)
Параметр Endianness формата : Big
Продолжительность : 1 ч. 59 м.
Вид битрейта : Постоянный
Битрейт : 448 Кбит/сек
Каналы : 6 каналов
Расположение каналов : Front: L C R, Side: L R, LFE
Частота : 48,0 КГц
Битовая глубина : 16 бит
Метод сжатия : С потерями
Размер потока : 383 Мбайт (100%)

Общее
Полное имя : E:VideoVam.pismo.1998.x264.BDRip.1080pVam.pismo.1998.AVO.rus.Ю.Живов.ac3
Формат : AC-3
Формат/Информация : Audio Coding 3
Размер файла : 383 Мбайт
Продолжительность : 1 ч. 59 м.
Режим общего битрейта : Постоянный
Общий поток : 448 Кбит/сек

Аудио
Формат : AC-3
Формат/Информация : Audio Coding 3
Расширение режима : CM (complete main)
Параметр Endianness формата : Big
Продолжительность : 1 ч. 59 м.
Вид битрейта : Постоянный
Битрейт : 448 Кбит/сек
Каналы : 6 каналов
Расположение каналов : Front: L C R, Side: L R, LFE
Частота : 48,0 КГц
Битовая глубина : 16 бит
Метод сжатия : С потерями
Размер потока : 383 Мбайт (100%)

Общее
Полное имя : E:VideoVam.pismo.1998.x264.BDRip.1080pVam.pismo.1998.eng.srt
Формат : SubRip
Размер файла : 130 Кбайт

Текст
Формат : SubRip
Метод сжатия : Без потерь

Общее
Полное имя : E:VideoVam.pismo.1998.x264.BDRip.1080pVam.pismo.1998.Original.eng.dts
Формат : DTS
Формат/Информация : Digital Theater Systems
Размер файла : 656 Мбайт
Продолжительность : 1 ч. 59 м.
Режим общего битрейта : Постоянный
Общий поток : 768 Кбит/сек

Аудио
Формат : DTS
Формат/Информация : Digital Theater Systems
Режим : 16
Параметр Endianness формата : Big
Продолжительность : 1 ч. 59 м.
Вид битрейта : Постоянный
Битрейт : 768 Кбит/сек
Каналы : 6 каналов
Расположение каналов : Front: L C R, Side: L R, LFE
Частота : 48,0 КГц
Битовая глубина : 24 бит
Метод сжатия : С потерями
Размер потока : 656 Мбайт (100%)

Общее
Полное имя : E:VideoVam.pismo.1998.x264.BDRip.1080pVam.pismo.1998.rus.srt
Формат : SubRip
Размер файла : 158 Кбайт

Текст
Формат : SubRip
Метод сжатия : Без потерь

Общее
Уникальный идентификатор : 208518502804943375363563706982140716043 (0x9CDF33EE0C7147D78774E94D2213A40B)
Полное имя : E:VideoVam.pismo.1998.x264.BDRip.1080pVam.pismo.1998.x264.BDRip.1080p.mkv
Формат : Matroska
Версия формата : Version 4 / Version 2
Размер файла : 13,1 Гбайт
Продолжительность : 1 ч. 59 м.
Общий поток : 15,7 Мбит/сек
Название фильма : Вам письмо / You've Got Mail / 1998 / BDRip -- STarankov
Дата кодирования : UTC 2013-12-30 13:30:16
Программа кодирования : mkvmerge v6.6.0 ('The Edge Of The In Between') built on Dec 1 2013 17:55:00
Библиотека кодирования : libebml v1.3.0 + libmatroska v1.4.1

Видео
Идентификатор : 1
Формат : AVC
Формат/Информация : Advanced Video Codec
Профиль формата : High@L4.1
Параметр CABAC формата : Да
Параметр ReFrames формата : 4 кадра
Идентификатор кодека : V_MPEG4/ISO/AVC
Продолжительность : 1 ч. 59 м.
Битрейт : 12,4 Мбит/сек
Ширина : 1920 пикселей
Высота : 1080 пикселей
Соотношение сторон : 16:9
Режим частоты кадров : Постоянный
Частота кадров : 23,976 кадра/сек
Цветовое пространство : YUV
Субдискретизация насыщенности : 4:2:0
Битовая глубина : 8 бит
Тип развёртки : Прогрессивная
Бит/(Пиксели*Кадры) : 0.250
Размер потока : 10,1 Гбайт (77%)
Библиотека кодирования : x264 core 138 r2358 9e941d1
Настройки программы : cabac=1 / ref=4 / deblock=1:-2:-2 / analyse=0x3:0x113 / me=umh / subme=10 / psy=1 / psy_rd=1.00:0.15 / mixed_ref=1 / me_range=24 / chroma_me=1 / trellis=2 / 8x8dct=1 / cqm=0 / deadzone=21,11 / fast_pskip=0 / chroma_qp_offset=-3 / threads=6 / lookahead_threads=1 / sliced_threads=0 / nr=0 / decimate=0 / interlaced=0 / bluray_compat=0 / constrained_intra=0 / bframes=8 / b_pyramid=2 / b_adapt=2 / b_bias=0 / direct=3 / weightb=1 / open_gop=0 / weightp=2 / keyint=230 / keyint_min=23 / scenecut=40 / intra_refresh=0 / rc_lookahead=40 / rc=2pass / mbtree=0 / bitrate=12449 / ratetol=1.0 / qcomp=0.60 / qpmin=0 / qpmax=69 / qpstep=4 / cplxblur=20.0 / qblur=0.5 / vbv_maxrate=50000 / vbv_bufsize=62500 / nal_hrd=none / ip_ratio=1.40 / pb_ratio=1.30 / aq=1:1.00
Язык : English
Default : Да
Forced : Нет

Аудио #1
Идентификатор : 2
Формат : AC-3
Формат/Информация : Audio Coding 3
Расширение режима : CM (complete main)
Параметр Endianness формата : Big
Идентификатор кодека : A_AC3
Продолжительность : 1 ч. 59 м.
Вид битрейта : Постоянный
Битрейт : 384 Кбит/сек
Каналы : 6 каналов
Расположение каналов : Front: L C R, Side: L R, LFE
Частота : 48,0 КГц
Битовая глубина : 16 бит
Метод сжатия : С потерями
Размер потока : 328 Мбайт (2%)
Заголовок : DUB
Язык : Russian
Default : Да
Forced : Нет

Аудио #2
Идентификатор : 3
Формат : DTS
Формат/Информация : Digital Theater Systems
Режим : 16
Параметр Endianness формата : Big
Идентификатор кодека : A_DTS
Продолжительность : 1 ч. 59 м.
Вид битрейта : Постоянный
Битрейт : 1509 Кбит/сек
Каналы : 6 каналов
Расположение каналов : Front: L C R, Side: L R, LFE
Частота : 48,0 КГц
Битовая глубина : 24 бит
Метод сжатия : С потерями
Размер потока : 1,26 Гбайт (10%)
Заголовок : AVO (Андрей Гаврилов)
Язык : Russian
Default : Нет
Forced : Нет

Аудио #3
Идентификатор : 4
Формат : AC-3
Формат/Информация : Audio Coding 3
Расширение режима : CM (complete main)
Параметр Endianness формата : Big
Идентификатор кодека : A_AC3
Продолжительность : 1 ч. 59 м.
Вид битрейта : Постоянный
Битрейт : 384 Кбит/сек
Каналы : 6 каналов
Расположение каналов : Front: L C R, Side: L R, LFE
Частота : 48,0 КГц
Битовая глубина : 16 бит
Метод сжатия : С потерями
Размер потока : 328 Мбайт (2%)
Заголовок : AVO (Василий Горчаков)
Язык : Russian
Default : Нет
Forced : Нет

Аудио #4
Идентификатор : 5
Формат : DTS
Формат/Информация : Digital Theater Systems
Режим : 16
Параметр Endianness формата : Big
Идентификатор кодека : A_DTS
Продолжительность : 1 ч. 59 м.
Вид битрейта : Постоянный
Битрейт : 768 Кбит/сек
Каналы : 6 каналов
Расположение каналов : Front: L C R, Side: L R, LFE
Частота : 48,0 КГц
Битовая глубина : 24 бит
Метод сжатия : С потерями
Размер потока : 656 Мбайт (5%)
Заголовок : AVO (Юрий Живов)
Язык : Russian
Default : Нет
Forced : Нет

Аудио #5
Идентификатор : 6
Формат : AC-3
Формат/Информация : Audio Coding 3
Расширение режима : CM (complete main)
Параметр Endianness формата : Big
Идентификатор кодека : A_AC3
Продолжительность : 1 ч. 59 м.
Вид битрейта : Постоянный
Битрейт : 192 Кбит/сек
Каналы : 2 канала
Расположение каналов : Front: L R
Частота : 48,0 КГц
Битовая глубина : 16 бит
Метод сжатия : С потерями
Размер потока : 164 Мбайт (1%)
Заголовок : AVO (Александр Кашкин (Первомайский))
Язык : Russian
Default : Нет
Forced : Нет

Меню
00:00:00.000 : :Chapter 01
00:03:03.016 : :Chapter 02
00:07:08.094 : :Chapter 03
00:08:34.055 : :Chapter 04
00:13:38.901 : :Chapter 05
00:16:03.587 : :Chapter 06
00:18:01.080 : :Chapter 07
00:21:07.307 : :Chapter 08
00:23:52.097 : :Chapter 09
00:29:26.431 : :Chapter 10
00:33:31.509 : :Chapter 11
00:38:29.015 : :Chapter 12
00:41:23.105 : :Chapter 13
00:44:09.229 : :Chapter 14
00:46:30.621 : :Chapter 15
00:51:10.859 : :Chapter 16
00:54:31.518 : :Chapter 17
00:57:43.710 : :Chapter 18
01:01:43.825 : :Chapter 19
01:07:34.383 : :Chapter 20
01:11:41.755 : :Chapter 21
01:17:05.037 : :Chapter 22
01:18:29.162 : :Chapter 23
01:22:32.364 : :Chapter 24
01:26:46.367 : :Chapter 25
01:29:41.793 : :Chapter 26
01:32:17.490 : :Chapter 27
01:35:02.321 : :Chapter 28
01:40:53.505 : :Chapter 29
01:43:33.874 : :Chapter 30
01:47:55.468 : :Chapter 31
01:52:15.103 : :Chapter 32
01:55:36.137 : :Chapter 33
01:59:22.530 : :Chapter 34

---[Information] [30.12.2013 1:13:34] avs [info]: 1920x1080p 1:1 @ 24000/1001 fps (cfr)
---[Information] [30.12.2013 1:13:34] x264 [info]: using SAR=1/1
---[Information] [30.12.2013 1:13:34] x264 [info]: using cpu capabilities: MMX2 SSE2Fast SSSE3 SSE4.2
---[Information] [30.12.2013 1:13:34] x264 [info]: profile High, level 4.1
---[Information] [30.12.2013 20:21:31] x264 [info]: frame I:1262 Avg QP:19.05 size:217579
---[Information] [30.12.2013 20:21:31] x264 [info]: frame P:41977 Avg QP:21.74 size:108543
---[Information] [30.12.2013 20:21:31] x264 [info]: frame B:128505 Avg QP:24.21 size: 49101
---[Information] [30.12.2013 20:21:31] x264 [info]: consecutive B-frames: 1.4% 4.5% 3.1% 67.7% 5.0% 4.7% 4.4% 8.8% 0.4%
---[Information] [30.12.2013 20:21:31] x264 [info]: mb I I16..4: 5.1% 81.1% 13.8%
---[Information] [30.12.2013 20:21:31] x264 [info]: mb P I16..4: 1.6% 25.1% 1.0% P16..4: 38.6% 20.8% 8.2% 0.0% 0.0% skip: 4.6%
---[Information] [30.12.2013 20:21:31] x264 [info]: mb B I16..4: 0.1% 2.3% 0.1% B16..8: 45.2% 12.4% 3.5% direct: 9.8% skip:26.7% L0:48.9% L1:39.1% BI:11.9%
---[Information] [30.12.2013 20:21:31] x264 [info]: 8x8 transform intra:90.0% inter:73.1%
---[Information] [30.12.2013 20:21:31] x264 [info]: direct mvs spatial:99.4% temporal:0.6%
---[Information] [30.12.2013 20:21:31] x264 [info]: coded y,uvDC,uvAC intra: 84.4% 88.8% 76.7% inter: 38.2% 46.1% 25.4%
---[Information] [30.12.2013 20:21:31] x264 [info]: i16 v,h,dc,p: 46% 18% 16% 20%
---[Information] [30.12.2013 20:21:31] x264 [info]: i8 v,h,dc,ddl,ddr,vr,hd,vl,hu: 13% 7% 24% 8% 10% 10% 9% 10% 10%
---[Information] [30.12.2013 20:21:31] x264 [info]: i4 v,h,dc,ddl,ddr,vr,hd,vl,hu: 19% 9% 6% 8% 13% 15% 11% 10% 10%
---[Information] [30.12.2013 20:21:31] x264 [info]: i8c dc,h,v,p: 62% 12% 13% 13%
---[Information] [30.12.2013 20:21:31] x264 [info]: Weighted P-Frames: Y:2.6% UV:0.6%
---[Information] [30.12.2013 20:21:31] x264 [info]: ref P L0: 54.0% 11.0% 25.9% 8.7% 0.4% 0.0%
---[Information] [30.12.2013 20:21:31] x264 [info]: ref B L0: 90.2% 8.1% 1.7%
---[Information] [30.12.2013 20:21:31] x264 [info]: ref B L1: 95.0% 5.0%
---[Information] [30.12.2013 20:21:31] x264 [info]: kb/s:12442.15
---[Information] [30.12.2013 20:21:31] encoded 171744 frames, 2.49 fps, 12442.15 kb/s
--[Information] [30.12.2013 20:21:35] Final statistics
---[Information] [30.12.2013 20:21:35] Video Bitrate Desired: 12449 kbit/s
---[Information] [30.12.2013 20:21:35] Video Bitrate Obtained (approximate): 12443 kbit/s
--[Information] [30.12.2013 20:21:35] MediaInfo
---[Information] File: E:RipVam.pismo.1998.x264.BDRipVam.pismo.1998.x264.BDRip.1080p.mkv


загрузка...
Правила, инструкции, FAQ!!!
Торрент  Добавлен [31 дек 2013, 10:26] Скачать торрент
Скачать торрент
[ Размер 36.92 КБ / Просмотров 9 ]

Статус  
 
Размер  14.47 ГБ
Приватный: Нет (DHT включён)
.torrent скачан  0
Как залить торрент? | Как скачать Torrent? | Как смотреть и слушать онлайн?  


     Отправить личное сообщение
   
Страница 1 из 1
Показать сообщения за:  Поле сортировки  
Начать новую тему Ответить на тему

   Похожие торренты   Автор   Ответы   Просмотры   Последнее сообщение 
В этой теме нет новых непрочитанных сообщений. Скачать торрент Проверен (Pop) Балаган Лимитед - Письмо любимому - 1998, MP3 (tracks), 320 kbps

в форуме Отечественная музыка, Размер: 92.6 МБ, Здоровье: 100%

Anonymous

0
2|1

11
0

30 июл 2016, 14:40

Anonymous Перейти к последнему сообщению

В этой теме нет новых непрочитанных сообщений. Скачать торрент Проверен Чёрный пёс / Black Dog (1998) BDRip 1080p | P, P2, A

в форуме 720p | 1080p, Размер: 8.9 ГБ, Здоровье: 100%

Гость

0
10|3

193
39

02 июл 2016, 13:28

Гость Перейти к последнему сообщению

В этой теме нет новых непрочитанных сообщений. Скачать торрент Его игра / He Got Game (1998) BDRip 1080p | P2, A

в форуме 720p | 1080p, Размер: 7.95 ГБ, Здоровье: 100%

Anonymous

0
3|0

83
0

14 янв 2014, 13:04

Anonymous Перейти к последнему сообщению

В этой теме нет новых непрочитанных сообщений. Скачать торрент Ливень / Hard Rain (1998) BDRip 1080p

в форуме 720p | 1080p, Размер: 7.75 ГБ, Здоровье: 0%

Anonymous

0
0|0

48
0

15 мар 2014, 21:11

Anonymous Перейти к последнему сообщению

В этой теме нет новых непрочитанных сообщений. Скачать торрент Солдатики / Small Soldiers (1998) BDRip 1080p | P, A

в форуме 720p | 1080p, Размер: 8.66 ГБ, Здоровье: 100%

Anonymous

0
6|0

26
46

24 мар 2014, 10:19

Anonymous Перейти к последнему сообщению



Сейчас этот форум просматривают: нет зарегистрированных пользователей и гости: 1


Вы не можете начинать темы
Вы не можете отвечать на сообщения
Вы не можете редактировать свои сообщения
Вы не можете удалять свои сообщения
Вы не можете добавлять вложения

Перейти:  

!ВНИМАНИЕ!
 Ресурс не предоставляет электронные версии произведений, а занимается лишь коллекционированием и каталогизацией ссылок, присылаемых и публикуемых на форуме нашими читателями. Если вы являетесь правообладателем какого-либо представленного материала и не желаете чтобы ссылка на него находилась в нашем каталоге, свяжитесь с нами и мы незамедлительно удалим её. Файлы для обмена на трекере предоставлены пользователями сайта, и администрация не несёт ответственности за их содержание. Просьба не заливать файлы, защищенные авторскими правами, а также файлы нелегального содержания!