На всех торрентах на трекере установлена скидка на скачивание в размере 100 процентов(а).
 Возможность скачивания торрента НЕ зависит от ограничений при низком ратио, низком аплоаде, требуемом ратио или требуемом аплоаде.


Начать новую тему Ответить на тему
Статистика раздачи
Размер: 4.47 ГБ | Добавлен: 30 дек 2013, 13:36 | Скачали: 3
Сидеров: 8  [0 байт/сек]    Личеров: 1  [0 байт/сек]
Пред. тема | След. тема 

Автор
Сообщение

СообщениеДобавлено: 30 дек 2013, 13:36 

Чудо пляж / Miracle Beach (1992) HDTV [1080i]

Год выпуска: 1992
Жанр: Комедия, Мелодрама
Страна: США
Студия: Motion Picture Corporation of America (MPCA)
Перевод : Профессиональный (двухголосый закадровый) НТВ+, Одноголосый закадровый
Cубтитры: Отсутствуют

Описание фильма:
Скотти, выгнанный с работы, лишившийся жилья, заставший свою подружку в постели с другим, отвергнутый прекрасной девушкой, в которую влюбился с первого взгляда, сидит на пляже рядом с бомжом. Тот, разжалобившись, дарит ему старую бутылку и одеяло. Тем временем повелитель джинов выписывает командировку на Землю симпатичной подчиненной. Пленницей подаренной Скотти бутылки она и оказалась…

Режиссер: Скот Снайдер / Skott Snider
Актеры: Дин Кэмерон, Эми Доленц, Фелисити Ватерман, Брайан Перри, Алексис Аркетт, Пэт Морита, Аллен Гарфилд, Мартин Мулл, Винсент Скьявелли, Брэд Грюнберг и др.

Продолжительность: 01:23:57
Качество видео: HDTV [1080i]



Дата мировой премьеры: 30 сентября 1992

Видеокодек: MPEG-4 AVC/H.264
Битрейт видео: ~6902 kb/s
Размер кадра: 1920x1080
Аудио 1: MP2 48.0KHz 2ch 192 Kbps rus Профессиональный (двухголосый закадровый) НТВ+
Аудио 2: AC3 48.0KHz 2ch 192 Kbps rus Одноголосый закадровый
Аудио 3: AC3 48.0KHz 2ch 192 Kbps eng Оригинал
Общее
Уникальный идентификатор : 177167948106128134635123759614654724290 (0x85494E3EB4D616FA8FD5C8FD09D4B8C2)
Полное имя : H:\Miracle Beach 1080i\Miracle Beach_HDTV 1080i.mkv
Формат : Matroska
Версия формата : Version 2
Размер файла : 4,47 Гбайт
Продолжительность : 1 ч. 23 м.
Общий поток : 7630 Кбит/сек
Дата кодирования : UTC 2013-10-06 00:50:58
Программа кодирования : mkvmerge v5.7.0 ('The Whirlwind') built on Jul 8 2012 20:08:51
Библиотека кодирования : libebml v1.2.3 + libmatroska v1.3.0

Видео
Идентификатор : 1
Формат : AVC
Формат/Информация : Advanced Video Codec
Профиль формата :
Параметр CABAC формата : Да
Параметр ReFrames формата : 3 кадра
Параметр GOP формата : M=4, N=32
Идентификатор кодека : V_MPEG4/ISO/AVC
Продолжительность : 1 ч. 23 м.
Битрейт : 6902 Кбит/сек
Ширина : 1920 пикселей
Высота : 1080 пикселей
Соотношение сторон : 16:9
Режим частоты кадров : Постоянный
Частота кадров : 25,000 кадров/сек
Стандарт вещания : Component
Цветовое пространство : YUV
Субдискретизация насыщенности : 4:2:0
Битовая глубина : 8 бит
Тип развёртки : Чересстрочная
Порядок развёртки : Верхнее поле первое
Бит/(Пиксели*Кадры) : 0.133
Размер потока : 4,05 Гбайт (90%)
Заголовок : Miracle Beach_HDTV 1080i
Default : Да
Forced : Нет
Основные цвета : BT.709
Характеристики трансфера : BT.709
Коэффициенты матрицы : BT.709

Аудио #1
Идентификатор : 2
Формат : MPEG Audio
Версия формата : Version 1
Профиль формата : Layer 2
Идентификатор кодека : A_MPEG/L2
Идентификатор кодека/Подсказка : MP2
Продолжительность : 1 ч. 23 м.
Вид битрейта : Постоянный
Битрейт : 192 Кбит/сек
Каналы : 2 канала
Частота : 48,0 КГц
Метод сжатия : С потерями
Размер потока : 115 Мбайт (3%)
Заголовок : Miracle Beach_MP2_DVO_NTV+
Язык : Russian
Default : Да
Forced : Нет

Аудио #2
Идентификатор : 3
Формат : AC-3
Формат/Информация : Audio Coding 3
Расширение режима : CM (complete main)
Параметр Endianness формата : Big
Идентификатор кодека : A_AC3
Продолжительность : 1 ч. 23 м.
Вид битрейта : Постоянный
Битрейт : 192 Кбит/сек
Каналы : 2 канала
Расположение каналов : Front: L R
Частота : 48,0 КГц
Битовая глубина : 16 бит
Метод сжатия : С потерями
Размер потока : 115 Мбайт (3%)
Заголовок : Miracle Beach_AC3_VO
Язык : Russian
Default : Нет
Forced : Нет

Аудио #3
Идентификатор : 4
Формат : AC-3
Формат/Информация : Audio Coding 3
Расширение режима : CM (complete main)
Параметр Endianness формата : Big
Идентификатор кодека : A_AC3
Продолжительность : 1 ч. 23 м.
Вид битрейта : Постоянный
Битрейт : 192 Кбит/сек
Каналы : 2 канала
Расположение каналов : Front: L R
Частота : 48,0 КГц
Битовая глубина : 16 бит
Метод сжатия : С потерями
Размер потока : 115 Мбайт (3%)
Заголовок : Miracle Beach_AC3_original eng
Язык : English
Default : Нет
Forced : Нет
Скриншоты:
загрузка...
Правила, инструкции, FAQ!!!
Торрент  Добавлен [30 дек 2013, 13:36] Скачать торрент
Скачать торрент
[ Размер 11.98 КБ / Просмотров 25 ]

Статус  
 
Размер  4.47 ГБ
Приватный: Нет (DHT включён)
.torrent скачан  3
Как залить торрент? | Как скачать Torrent? | Как смотреть и слушать онлайн?  


     Отправить личное сообщение
   
Страница 1 из 1
Показать сообщения за:  Поле сортировки  
Начать новую тему Ответить на тему

   Похожие торренты   Автор   Ответы   Просмотры   Последнее сообщение 
В этой теме нет новых непрочитанных сообщений. Скачать торрент Проверен U2 - 2014-10-17 - The Miracle (of Joey Ramone) - The Graham Norton Show - Pro-Shot [2014, Rock, HDTV 1080i]

в форуме Концерты (HD-Video), Размер: 329.03 МБ, Здоровье: 0%

Anonymous

0
0|0

1
0

23 окт 2016, 12:08

Anonymous Перейти к последнему сообщению

В этой теме нет новых непрочитанных сообщений. Скачать торрент Проверен Маленький Ник и его друзья: Путешествие на пляж / Nick Jr Baby Curious Buddies: Exploring At The Beach (2004) DVDRip [EN]

в форуме Развивающее Видео для детей, Размер: 700.16 МБ, Здоровье: 100%

Anonymous

0
1|1

4
0

30 ноя 2015, 23:03

Anonymous Перейти к последнему сообщению

В этой теме нет новых непрочитанных сообщений. Скачать торрент Проверен Freddie Mercury. Tribute Concert 1992 [2014, Rock, HDTV 1080i]

в форуме Концерты (HD-Video), Размер: 14.7 ГБ, Здоровье: 100%

Anonymous

0
10|5

139
4

01 май 2015, 20:01

Anonymous Перейти к последнему сообщению

В этой теме нет новых непрочитанных сообщений. Скачать торрент Проверен Guardian - Miracle Mile (1992) [APE|Lossless]<Hard Rock>

в форуме Рок, Панк, Метал, Альтернатива, Размер: 398.33 МБ, Здоровье: 50%

Anonymous

0
1|2

47
0

21 июл 2014, 10:34

Anonymous Перейти к последнему сообщению

В этой теме нет новых непрочитанных сообщений. Скачать торрент Проверен (Hard Rock) Guardian - Miracle Mile (EK 57112) - 1992, APE (image+.cue), lossless

в форуме Classic Rock & Hard Rock, Размер: 398.15 МБ, Здоровье: 100%

Anonymous

0
24|1

5
1

03 сен 2016, 23:01

Anonymous Перейти к последнему сообщению



Сейчас этот форум просматривают: нет зарегистрированных пользователей и гости: 1


Вы не можете начинать темы
Вы не можете отвечать на сообщения
Вы не можете редактировать свои сообщения
Вы не можете удалять свои сообщения
Вы не можете добавлять вложения

Перейти:  

!ВНИМАНИЕ!
 Ресурс не предоставляет электронные версии произведений, а занимается лишь коллекционированием и каталогизацией ссылок, присылаемых и публикуемых на форуме нашими читателями. Если вы являетесь правообладателем какого-либо представленного материала и не желаете чтобы ссылка на него находилась в нашем каталоге, свяжитесь с нами и мы незамедлительно удалим её. Файлы для обмена на трекере предоставлены пользователями сайта, и администрация не несёт ответственности за их содержание. Просьба не заливать файлы, защищенные авторскими правами, а также файлы нелегального содержания!