На всех торрентах на трекере установлена скидка на скачивание в размере 100 процентов(а).
 Возможность скачивания торрента НЕ зависит от ограничений при низком ратио, низком аплоаде, требуемом ратио или требуемом аплоаде.


Начать новую тему Ответить на тему
Статистика раздачи
Размер: 9.65 ГБ | Добавлен: 28 дек 2013, 15:41 | Скачали: 0
Сидеров: 4  [0 байт/сек]    Личеров: 0  [0 байт/сек]
Пред. тема | След. тема 

Автор
Сообщение

СообщениеДобавлено: 28 дек 2013, 15:41 

Вальмон
Valmont
«Паутина интриг в жизни блестящих и жалких людей...»
Год выпуска: 1989
Страна: Франция , США
Жанр: драма, мелодрама
Продолжительность: 02:11:04
Перевод: Профессиональный (многоголосый закадровый)
Субтитры: Russian (UTF-8), English (UTF-8)

Режиссер: Милош Форман


В ролях: Колин Фёрт / Colin Firth (Valmont), Аннетт Бенинг / Annette Bening (Merteuil), Мег Тилли / Meg Tilly (Tourvel), Файруза Балк / Fairuza Balk (Cecile), Шан Филлипс / Sian Phillips (Madame de Volanges), Джеффри Джонс / Jeffrey Jones (Gercourt), Генри Томас / Henry Thomas (Danceny), Фабия Дрейк / Fabia Drake (Madame de Rosemonde), Т.П. МакКенна / T.P. McKenna (Baron), Айла Блэр / Isla Blair (Baroness)

Описание: Маркиза де Мертей — гениальный «кукловод» интимных отношений в высшем свете. Блестящий Вальмон — герой донжуанского списка соблазненных и покинутых. Острейший аромат далекой эпохи распространяют куртуазное обольщение, измены, дуэли, убийства.

Рейтинг MPAA: Лицам до 17 лет обязательно присутствие взрослого




Качество: BDRip1080p
Формат: MKV
Видео кодек: H.264 (AVC)
Аудио кодеk: AC3
Видео: 1920x800 (2.40:1), 25.000 fps, AVC, 9450 Kbps
Аудио:
Аудио #1: AC3, 448 Kbps, 48.0 KHz, 6 ch RUS R5, СР Диджитал MVO
Аудио #2: AC3, 192 Kbps, 48.0 KHz, 2 ch RUS "Селена интернешнл" по заказу "ОРТ-видео" MVO
Аудио #3: AC3, 448 Kbps, 48.0 KHz, 6 ch ENG


x264 [info]: frame I:1532 Avg QP:18.19 size:177175
x264 [info]: frame P:37931 Avg QP:20.48 size: 78303
x264 [info]: frame B:157140 Avg QP:22.65 size: 38484
********************************************************
General
Unique ID : 244561929372043644802556387796752195600 (0xB7FCEA0FCADD5A5BA9E473FEB38EE010)
Complete name : Valmont.1989.1080p.F-HD.mkv
Format : Matroska
Format version : Version 4 / Version 2
File size : 9.65 GiB
Duration : 2h 11mn
Overall bit rate : 10.5 Mbps
Encoded date : UTC 2013-12-28 06:35:36
Writing application : mkvmerge v6.6.0 ('The Edge Of The In Between') built on Dec 1 2013 17:55:00
Writing library : libebml v1.3.0 + libmatroska v1.4.1

Video
ID : 1
Format : AVC
Format/Info : Advanced Video Codec
Format profile : High@L4.1
Format settings, CABAC : Yes
Format settings, ReFrames : 5 frames
Codec ID : V_MPEG4/ISO/AVC
Bit rate : 9 450 Kbps
Width : 1 920 pixels
Height : 800 pixels
Display aspect ratio : 2.40:1
Frame rate mode : Variable
Original frame rate : 25.000 fps
Color space : YUV
Chroma subsampling : 4:2:0
Bit depth : 8 bits
Scan type : Progressive
Bits/(Pixel*Frame) : 0.246
Writing library : x264 core 140 r2377kMod 1ca7bb9
Encoding settings : cabac=1 / ref=5 / deblock=1:-3:-3 / analyse=0x3:0x113 / me=umh / subme=10 / psy=1 / fade_compensate=0.00 / psy_rd=0.90:0.00 / mixed_ref=1 / me_range=32 / chroma_me=1 / trellis=2 / 8x8dct=1 / cqm=0 / deadzone=21,11 / fast_pskip=0 / chroma_qp_offset=-2 / threads=6 / lookahead_threads=1 / sliced_threads=0 / nr=0 / decimate=1 / interlaced=0 / bluray_compat=0 / constrained_intra=0 / fgo=0 / bframes=9 / b_pyramid=2 / b_adapt=2 / b_bias=0 / direct=3 / weightb=1 / open_gop=0 / weightp=2 / keyint=250 / keyint_min=25 / scenecut=40 / intra_refresh=0 / rc_lookahead=40 / rc=2pass / mbtree=0 / bitrate=9450 / ratetol=1.0 / qcomp=0.75 / qpmin=0 / qpmax=69 / qpstep=4 / cplxblur=20.0 / qblur=0.5 / vbv_maxrate=50000 / vbv_bufsize=62500 / nal_hrd=none / filler=0 / ip_ratio=1.40 / pb_ratio=1.30 / aq=1:0.80
Language : English
Default : Yes
Forced : No
Matrix coefficients : BT.709

Audio #1
ID : 2
Format : AC-3
Format/Info : Audio Coding 3
Mode extension : CM (complete main)
Format settings, Endianness : Big
Codec ID : A_AC3
Duration : 2h 11mn
Bit rate mode : Constant
Bit rate : 448 Kbps
Channel(s) : 6 channels
Channel positions : Front: L C R, Side: L R, LFE
Sampling rate : 48.0 KHz
Bit depth : 16 bits
Compression mode : Lossy
Stream size : 420 MiB (4%)
Title : R5, СР Диджитал
Language : Russian
Default : Yes
Forced : No

Audio #2
ID : 3
Format : AC-3
Format/Info : Audio Coding 3
Mode extension : CM (complete main)
Format settings, Endianness : Big
Codec ID : A_AC3
Duration : 2h 11mn
Bit rate mode : Constant
Bit rate : 192 Kbps
Channel(s) : 2 channels
Channel positions : Front: L R
Sampling rate : 48.0 KHz
Bit depth : 16 bits
Compression mode : Lossy
Stream size : 180 MiB (2%)
Title : "Селена интернешнл" по заказу "ОРТ-видео"
Language : Russian
Default : No
Forced : No

Audio #3
ID : 4
Format : AC-3
Format/Info : Audio Coding 3
Mode extension : CM (complete main)
Format settings, Endianness : Big
Codec ID : A_AC3
Duration : 2h 11mn
Bit rate mode : Constant
Bit rate : 448 Kbps
Channel(s) : 6 channels
Channel positions : Front: L C R, Side: L R, LFE
Sampling rate : 48.0 KHz
Bit depth : 16 bits
Compression mode : Lossy
Stream size : 420 MiB (4%)
Language : English
Default : No
Forced : No

Text #1
ID : 5
Format : UTF-8
Codec ID : S_TEXT/UTF8
Codec ID/Info : UTF-8 Plain Text
Language : Russian
Default : No
Forced : No

Text #2
ID : 6
Format : UTF-8
Codec ID : S_TEXT/UTF8
Codec ID/Info : UTF-8 Plain Text
Language : English
Default : No
Forced : No

Menu
00:00:00.000 : en:00:00:00.000
00:10:11.080 : en:00:10:11.080
00:21:11.600 : en:00:21:11.600
00:31:04.400 : en:00:31:04.400
00:40:46.760 : en:00:40:46.760
00:50:45.560 : en:00:50:45.560
01:01:14.000 : en:01:01:14.000
01:10:28.240 : en:01:10:28.240
01:23:35.400 : en:01:23:35.400
01:28:35.040 : en:01:28:35.040
01:42:30.760 : en:01:42:30.760
01:58:17.680 : en:01:58:17.680





Релиз от:
загрузка...
Правила, инструкции, FAQ!!!
Торрент  Добавлен [28 дек 2013, 15:41] Скачать торрент
Скачать торрент
[ Размер 48.71 КБ / Просмотров 13 ]

Статус  
 
Размер  9.65 ГБ
Приватный: Нет (DHT включён)
.torrent скачан  0
Как залить торрент? | Как скачать Torrent? | Как смотреть и слушать онлайн?  


     Отправить личное сообщение
   
Страница 1 из 1
Показать сообщения за:  Поле сортировки  
Начать новую тему Ответить на тему

   Похожие торренты   Автор   Ответы   Просмотры   Последнее сообщение 
В этой теме нет новых непрочитанных сообщений. Скачать торрент Вальмон / Valmont (1989) DVDRip

в форуме Драмы, Мелодрамы, Размер: 1.46 ГБ, Здоровье: 0%

Anonymous

0
0|0

16
0

28 дек 2013, 15:45

Anonymous Перейти к последнему сообщению

В этой теме нет новых непрочитанных сообщений. Скачать торрент Проверен Всегда / Always (1989) BDRip 1080p

в форуме 720p | 1080p, Размер: 12.32 ГБ, Здоровье: 100%

Anonymous

0
6|1

26
84

03 ноя 2014, 12:45

Anonymous Перейти к последнему сообщению

В этой теме нет новых непрочитанных сообщений. Скачать торрент Проверен Сага: Пятница 13-е / Friday the 13th Saga (1980-1989) BDRip 1080p | P, P2, A

в форуме Антологии, Размер: 81.89 ГБ, Здоровье: 33%

Гость

0
1|3

419
10

13 дек 2014, 09:31

Гость Перейти к последнему сообщению

В этой теме нет новых непрочитанных сообщений. Скачать торрент Проверен Индиана Джонс и последний крестовый поход / Indiana Jones and the Last Crusade (1989) BDRip 1080p

в форуме 720p | 1080p, Размер: 7.95 ГБ, Здоровье: 100%

Гость

0
50|14

12
165

26 авг 2016, 07:46

Гость Перейти к последнему сообщению

В этой теме нет новых непрочитанных сообщений. Скачать торрент Проверен Pycaлoчкa в 3Д / Thе Littlе Меrmаid 3D (Рон Клементс, Джон Маскер / Ron Clements, John Musker) [1989, Мультфильм, Мюзикл, Фэнтези, Мелодрама, Семейный, BDrip, 1080p] OverUnder / Вертикальная стереопара

в форуме 3D Мультфильмы, Размер: 17.91 ГБ, Здоровье: 0%

Anonymous

0
0|0

3
0

07 сен 2016, 17:34

Anonymous Перейти к последнему сообщению



Сейчас этот форум просматривают: нет зарегистрированных пользователей и гости: 2


Вы не можете начинать темы
Вы не можете отвечать на сообщения
Вы не можете редактировать свои сообщения
Вы не можете удалять свои сообщения
Вы не можете добавлять вложения

Перейти:  

!ВНИМАНИЕ!
 Ресурс не предоставляет электронные версии произведений, а занимается лишь коллекционированием и каталогизацией ссылок, присылаемых и публикуемых на форуме нашими читателями. Если вы являетесь правообладателем какого-либо представленного материала и не желаете чтобы ссылка на него находилась в нашем каталоге, свяжитесь с нами и мы незамедлительно удалим её. Файлы для обмена на трекере предоставлены пользователями сайта, и администрация не несёт ответственности за их содержание. Просьба не заливать файлы, защищенные авторскими правами, а также файлы нелегального содержания!