На всех торрентах на трекере установлена скидка на скачивание в размере 100 процентов(а).
 Возможность скачивания торрента НЕ зависит от ограничений при низком ратио, низком аплоаде, требуемом ратио или требуемом аплоаде.


Начать новую тему Ответить на тему
Статистика раздачи
Размер: 7.74 ГБ | Добавлен: 28 дек 2013, 15:19 | Скачали: 2
Сидеров: 4  [0 байт/сек]    Личеров: 2  [0 байт/сек]
Пред. тема | След. тема 

Автор
Сообщение

СообщениеДобавлено: 28 дек 2013, 15:19 


Информация о фильме
    Русское название: Новая рождественская сказка
    Оригинальное название: Scrooged
    Год выхода: 1988
    Жанр: Фэнтази, драма, комедия
    Режиссер: Ричард Доннер
    Выпущено: США
    Продолжительность: 01:40:55
    Перевод: Многоголосый закадровый
    В ролях: Билл Мюррей, Карен Аллен, Джон Форсайт, Джон Гловер, Боб Голдтуэйт, Дэвид Джохансен, Кэрол Кейн, Роберт Митчум, Николас Филлипс, Майкл Дж. Поллард


Сюжет фильма
    Наступило Рождество… Но, к сожалению, волшебная сила этого чудесного праздника не в силах растопить лед в сердцах некоторых абсолютно черствых и самодовольных личностей. К числу подобных неисправимых типов относится и герой этой картины — магнат Фрэнк Кросс.Он богат, всесилен и абсолютно равнодушен ко всему, кроме собственных денег. Кросс — владелец собственного телеканала, безжалостный и хладнокровный бизнесмен, с очень жестоким чувством юмора.В общем, Фрэнк — один из тех парней, которые запросто могут испортить вам замечательный праздник. Таких людей, понятное дело, надо воспитывать, и чем быстрей, тем лучше. Ради такого случая в игру включаются сверхъестественные силы.В рождественскую ночь перевоспитанием Фрэнка займутся специально подобранные для этого существа. А именно:призрак прошлого — веселый таксист из ада; призрак настоящего — современная, задорная фея без комплексов, использующая методы рукопашного боя и ужасный, немногословный посланник будущего, с черепом, вместо лица…


Файл
    Качество: BDRip 1080p (исходник Blu-ray Remux)
    Видео: 1920x1080, 9980 Кбит/сек, 23.976 кадр/сек, AVC, x264, High@L4.1, 16:9, 0.201 Бит/[Пиксели*Кадры], 2pass
    Аудио 1: AC-3, 192 Кбит/сек, 2 канала(ов), 48,0 КГц - Многоголосый закадровый (СТС) / Русский
    Аудио 2: AC-3, 192 Кбит/сек, 2 канала(ов), 48,0 КГц - Многоголосый закадровый (LostFilm) / Русский
    Аудио 3: AC-3, 640 Кбит/сек, 6 канала(ов), 48,0 КГц - Оригинал / Английский
    Субтитры: Русские | Полные, Английские | Полные
    Чаптеры: Есть



Автор Рипа: Сообщество:



Format : Matroska
Format version : Version 2
File size : 7.74 GiB
Duration : 1h 40mn
Overall bit rate : 11.0 Mbps
Movie name : Новая рождественская сказка.(1988).BDRip.1080p.[envy]
Encoded date : UTC 2013-12-28 06:06:02
Writing application : mkvmerge v5.8.0 ('No Sleep / Pillow') built on Sep 2 2012 15:37:04
Writing library : libebml v1.2.3 + libmatroska v1.3.0

Video
ID : 1
Format : AVC
Format/Info : Advanced Video Codec
Format profile : High@L4.1
Format settings, CABAC : Yes
Format settings, ReFrames : 4 frames
Codec ID : V_MPEG4/ISO/AVC
Duration : 1h 40mn
Bit rate : 9 980 Kbps
Width : 1 920 pixels
Height : 1 080 pixels
Display aspect ratio : 16:9
Frame rate mode : Constant
Frame rate : 23.976 fps
Color space : YUV
Chroma subsampling : 4:2:0
Bit depth : 8 bits
Scan type : Progressive
Bits/(Pixel*Frame) : 0.201
Stream size : 6.87 GiB (89%)
Title : Новая рождественская сказка.(1988).BDRip.1080p.[envy]
Writing library : x264 core 140 r2377 1ca7bb9
Encoding settings : cabac=1 / ref=4 / deblock=1:-3:-2 / analyse=0x3:0x133 / me=umh / subme=11 / psy=1 / psy_rd=1.00:0.00 / mixed_ref=1 / me_range=32 / chroma_me=1 / trellis=2 / 8x8dct=1 / cqm=0 / deadzone=21,11 / fast_pskip=0 / chroma_qp_offset=-2 / threads=12 / lookahead_threads=1 / sliced_threads=0 / nr=0 / decimate=1 / interlaced=0 / bluray_compat=0 / constrained_intra=0 / bframes=6 / b_pyramid=2 / b_adapt=2 / b_bias=0 / direct=3 / weightb=1 / open_gop=0 / weightp=2 / keyint=240 / keyint_min=23 / scenecut=40 / intra_refresh=0 / rc=2pass / mbtree=0 / bitrate=9980 / ratetol=2.0 / qcomp=0.60 / qpmin=0 / qpmax=69 / qpstep=4 / cplxblur=20.0 / qblur=0.5 / ip_ratio=1.40 / pb_ratio=1.30 / aq=2:1.00
Language : English
Default : Yes
Forced : No

Audio #1
ID : 2
Format : AC-3
Format/Info : Audio Coding 3
Mode extension : CM (complete main)
Format settings, Endianness : Big
Codec ID : A_AC3
Duration : 1h 40mn
Bit rate mode : Constant
Bit rate : 192 Kbps
Channel count : 2 channels
Channel positions : Front: L R
Sampling rate : 48.0 KHz
Bit depth : 16 bits
Compression mode : Lossy
Stream size : 139 MiB (2%)
Title : CTC
Language : Russian
Default : Yes
Forced : No

Audio #2
ID : 3
Format : AC-3
Format/Info : Audio Coding 3
Mode extension : CM (complete main)
Format settings, Endianness : Big
Codec ID : A_AC3
Duration : 1h 40mn
Bit rate mode : Constant
Bit rate : 192 Kbps
Channel count : 2 channels
Channel positions : Front: L R
Sampling rate : 48.0 KHz
Bit depth : 16 bits
Compression mode : Lossy
Stream size : 139 MiB (2%)
Title : LostFilm
Language : Russian
Default : No
Forced : No

Audio #3
ID : 4
Format : AC-3
Format/Info : Audio Coding 3
Mode extension : CM (complete main)
Format settings, Endianness : Big
Codec ID : A_AC3
Duration : 1h 40mn
Bit rate mode : Constant
Bit rate : 640 Kbps
Channel count : 6 channels
Channel positions : Front: L C R, Side: L R, LFE
Sampling rate : 48.0 KHz
Bit depth : 16 bits
Compression mode : Lossy
Stream size : 462 MiB (6%)
Title : Eng
Language : English
Default : No
Forced : No

Text #1
ID : 5
Format : UTF-8
Codec ID : S_TEXT/UTF8
Codec ID/Info : UTF-8 Plain Text
Title : rus full
Language : Russian
Default : No
Forced : No

Text #2
ID : 6
Format : UTF-8
Codec ID : S_TEXT/UTF8
Codec ID/Info : UTF-8 Plain Text
Title : eng full
Language : English
Default : No
Forced : No

Menu
00:00:00.000 : en:00:00:00.000
00:07:03.506 : en:00:07:03.506
00:16:59.685 : en:00:16:59.685
00:25:00.874 : en:00:25:00.874
00:31:44.569 : en:00:31:44.569
00:52:38.822 : en:00:52:38.822
00:58:20.497 : en:00:58:20.497
01:10:50.663 : en:01:10:50.663
01:14:38.599 : en:01:14:38.599
01:22:00.999 : en:01:22:00.999
01:24:36.822 : en:01:24:36.822
01:33:05.330 : en:01:33:05.330
загрузка...
Правила, инструкции, FAQ!!!
Торрент  Добавлен [28 дек 2013, 15:19] Скачать торрент
Скачать торрент
[ Размер 39.16 КБ / Просмотров 13 ]

Статус  
 
Размер  7.74 ГБ
Приватный: Нет (DHT включён)
.torrent скачан  2
Как залить торрент? | Как скачать Torrent? | Как смотреть и слушать онлайн?  


     Отправить личное сообщение
   
Страница 1 из 1
Показать сообщения за:  Поле сортировки  
Начать новую тему Ответить на тему

   Похожие торренты   Автор   Ответы   Просмотры   Последнее сообщение 
В этой теме нет новых непрочитанных сообщений. Скачать торрент Новая рождественская сказка / Scrooged (1988) BDRip

в форуме Фантастика, Фэнтези, Размер: 1.45 ГБ, Здоровье: 100%

Anonymous

0
14|1

23
58

28 дек 2013, 15:24

Anonymous Перейти к последнему сообщению

В этой теме нет новых непрочитанных сообщений. Скачать торрент Рождественская история / A Christmas Carol (2009) [1080p] BDRip

в форуме 720p | 1080p, Размер: 5.89 ГБ, Здоровье: 100%

Anonymous

0
11|1

22
0

01 янв 2014, 01:13

Anonymous Перейти к последнему сообщению

В этой теме нет новых непрочитанных сообщений. Скачать торрент Проверен Рождественская история 3Д / A Christmas Carol 3D (Роберт Земекис / Robert Zemeckis) [2009, фэнтези, драма, семейный, мультфильм, BDrip 1080p] OverUnder / Вертикальная стереопара

в форуме 3D Мультфильмы, Размер: 6.98 ГБ, Здоровье: 100%

Anonymous

0
2|1

7
0

07 сен 2016, 18:13

Anonymous Перейти к последнему сообщению

В этой теме нет новых непрочитанных сообщений. Скачать торрент Проверен Старик Хоттабыч (Геннадий Казанский) [1956, СССР, Фильм-сказка, BDRip 1080p] + Original Rus

в форуме Наше кино (HD Video), Размер: 7.95 ГБ, Здоровье: 100%

Anonymous

0
66|21

53
1

12 апр 2015, 11:06

Anonymous Перейти к последнему сообщению

В этой теме нет новых непрочитанных сообщений. Скачать торрент Проверен Золушка (Михаил Шапиро, Надежда Кошеверова) [1947, СССР, сказка, семейный, BDRip 1080p] [Цветная версия] Original Rus

в форуме Наше кино (HD Video), Размер: 7.66 ГБ, Здоровье: 100%

Anonymous

0
46|16

42
1

12 апр 2015, 11:07

Anonymous Перейти к последнему сообщению



Сейчас этот форум просматривают: нет зарегистрированных пользователей и гости: 3


Вы не можете начинать темы
Вы не можете отвечать на сообщения
Вы не можете редактировать свои сообщения
Вы не можете удалять свои сообщения
Вы не можете добавлять вложения

Перейти:  

!ВНИМАНИЕ!
 Ресурс не предоставляет электронные версии произведений, а занимается лишь коллекционированием и каталогизацией ссылок, присылаемых и публикуемых на форуме нашими читателями. Если вы являетесь правообладателем какого-либо представленного материала и не желаете чтобы ссылка на него находилась в нашем каталоге, свяжитесь с нами и мы незамедлительно удалим её. Файлы для обмена на трекере предоставлены пользователями сайта, и администрация не несёт ответственности за их содержание. Просьба не заливать файлы, защищенные авторскими правами, а также файлы нелегального содержания!