На всех торрентах на трекере установлена скидка на скачивание в размере 100 процентов(а).
 Возможность скачивания торрента НЕ зависит от ограничений при низком ратио, низком аплоаде, требуемом ратио или требуемом аплоаде.


Начать новую тему Ответить на тему
Статистика раздачи
Размер: 3.61 ГБ | Добавлен: 28 дек 2013, 14:09 | Скачали: 0
Сидеров: 0  [0 байт/сек]    Личеров: 0  [0 байт/сек]
Пред. тема | След. тема 

Автор
Сообщение

СообщениеДобавлено: 28 дек 2013, 14:09 

Название: Алан Партридж
Оригинальное название: Alan Partridge: Alpha Papa
Год выхода: 2013
Жанр: комедия
Режиссер: Деклан Лауни

В ролях: Стив Куган, Колм Мини, Анна Максвелл Мартин, Шон Пертуи, Джессика Нэппет, Даррен Бойд, Моника Долан, Найджел Линдсэй, Саймон Делани, Фелисити Монтегю

О фильме: Новый медиа-конгломерат подминает под себя радиостанцию Алана Партриджа, что приводит к череде событий, ведущих героя, которому теперь грозит опасность, к сотрудничеству с полицией.



Выпущено: Великобритания, Франция / Baby Cow Films, Baby Cow Productions Ltd.
Продолжительность: 01:30:10
Озвучивание: Любительское (двухголосое) [Студия "Paradox"]

Примечание: Присутствует ненормативная лексика!


Формат: MKV
Качество: BDRip 720p
Видео: 4500 kb/s, 1280x536
Аудио: Russian: AC3, 448 kb/s (6 ch) / English: DTS, 755 kb/s (6 ch)
Субтитры: English





Format : Matroska
Format version : Version 4 / Version 2
File size : 3.61 GiB
Duration : 1h 30mn
Overall bit rate : 5 732 Kbps
Encoded date : UTC 2013-12-27 20:51:21
Writing application : mkvmerge v6.1.0 ('Old Devil') built on Mar 4 2013 09:10:42
Writing library : libebml v1.3.0 + libmatroska v1.4.0

Video
ID : 1
Format : AVC
Format/Info : Advanced Video Codec
Format profile : High@L4.1
Format settings, CABAC : Yes
Format settings, ReFrames : 12 frames
Codec ID : V_MPEG4/ISO/AVC
Duration : 1h 30mn
Bit rate : 4 500 Kbps
Width : 1 280 pixels
Height : 536 pixels
Display aspect ratio : 2.40:1
Frame rate : 23.976 fps
Color space : YUV
Chroma subsampling : 4:2:0
Bit depth : 8 bits
Scan type : Progressive
Bits/(Pixel*Frame) : 0.274
Stream size : 2.78 GiB (77%)
Writing library : x264 core 138 r2358 9e941d1
Encoding settings : cabac=1 / ref=12 / deblock=1:-3:-3 / analyse=0x3:0x113 / me=umh / subme=11 / psy=1 / psy_rd=1.00:0.10 / mixed_ref=1 / me_range=48 / chroma_me=1 / trellis=2 / 8x8dct=1 / cqm=0 / deadzone=21,11 / fast_pskip=0 / chroma_qp_offset=-3 / threads=48 / lookahead_threads=4 / sliced_threads=0 / nr=0 / decimate=0 / interlaced=0 / bluray_compat=0 / constrained_intra=0 / bframes=8 / b_pyramid=2 / b_adapt=2 / b_bias=0 / direct=3 / weightb=1 / open_gop=0 / weightp=2 / keyint=360 / keyint_min=2 / scenecut=40 / intra_refresh=0 / rc_lookahead=60 / rc=2pass / mbtree=1 / bitrate=4500 / ratetol=1.0 / qcomp=0.70 / qpmin=0 / qpmax=69 / qpstep=4 / cplxblur=20.0 / qblur=0.5 / vbv_maxrate=50000 / vbv_bufsize=30000 / nal_hrd=none / ip_ratio=1.10 / aq=1:0.80
Language : English
Default : Yes
Forced : No

Audio #1
ID : 2
Format : AC-3
Format/Info : Audio Coding 3
Mode extension : CM (complete main)
Format settings, Endianness : Big
Codec ID : A_AC3
Duration : 1h 30mn
Bit rate mode : Constant
Bit rate : 448 Kbps
Channel(s) : 6 channels
Channel positions : Front: L C R, Side: L R, LFE
Sampling rate : 48.0 KHz
Bit depth : 16 bits
Compression mode : Lossy
Stream size : 289 MiB (8%)
Language : Russian
Default : Yes
Forced : No

Audio #2
ID : 3
Format : DTS
Format/Info : Digital Theater Systems
Codec ID : A_DTS
Duration : 1h 30mn
Bit rate mode : Constant
Bit rate : 755 Kbps
Channel(s) : 6 channels
Channel positions : Front: L C R, Side: L R, LFE
Sampling rate : 48.0 KHz
Bit depth : 24 bits
Compression mode : Lossy
Stream size : 487 MiB (13%)
Language : English
Default : No
Forced : No

Text
ID : 4
Format : PGS
Muxing mode : zlib
Codec ID : S_HDMV/PGS
Codec ID/Info : The same subtitle format used on BDs/HD-DVDs
Title : English
Language : English
Default : No
Forced : No
загрузка...
Правила, инструкции, FAQ!!!
Торрент  Добавлен [28 дек 2013, 14:09] Скачать торрент
Скачать торрент
[ Размер 18.55 КБ / Просмотров 10 ]

Статус  
 
Размер  3.61 ГБ
Приватный: Нет (DHT включён)
.torrent скачан  0
Как залить торрент? | Как скачать Torrent? | Как смотреть и слушать онлайн?  


     Отправить личное сообщение
   
Страница 1 из 1
Показать сообщения за:  Поле сортировки  
Начать новую тему Ответить на тему

   Похожие торренты   Автор   Ответы   Просмотры   Последнее сообщение 
В этой теме нет новых непрочитанных сообщений. Скачать торрент Проверен [iPad] Сердце Ангела / Angel heart (Алан Паркер / Alan Parker) [1987 г., Мистика, ужасы, триллер, BDRip 720p]

в форуме Фильмы для iPod, iPhone, iPad, Размер: 3.26 ГБ, Здоровье: 100%

Гость

0
12|4

41
0

18 май 2015, 10:49

Гость Перейти к последнему сообщению

В этой теме нет новых непрочитанных сообщений. Скачать торрент Jeff Beck - Performing This Week: Live at Ronnie Scott's (Алан Бранч /Alan Branch) [2009 г., Rock / Blues, BDRip]

в форуме Концерты (HD-Video), Размер: 6.56 ГБ, Здоровье: 100%

Anonymous

0
5|2

73
1

18 янв 2014, 17:45

Anonymous Перейти к последнему сообщению

В этой теме нет новых непрочитанных сообщений. Скачать торрент Проверен Jeff Beck - Performing This Week: Live at Ronnie Scott's (Алан Бранч /Alan Branch) [2009 г., Rock / Blues, BDRip]

в форуме Концерты (HD-Video), Размер: 4.28 ГБ, Здоровье: 100%

Гость

0
9|3

47
2

26 апр 2015, 22:13

Гость Перейти к последнему сообщению

В этой теме нет новых непрочитанных сообщений. Скачать торрент Проверен Альфа Дог / Alpha Dog (2006) BDRip 720p | Лицензия

в форуме 720p | 1080p, Размер: 2.02 ГБ, Здоровье: 100%

Anonymous

0
70|2

145
753

13 июл 2014, 23:15

Anonymous Перейти к последнему сообщению

В этой теме нет новых непрочитанных сообщений. Скачать торрент Проверен Алан Брэдли / Alan Bradley - Собрание сочинений [2007-2015, FB2, RTF, RUS]

в форуме Детективы и Боевики, Размер: 15.02 МБ, Здоровье: 100%

Anonymous

0
35|11

13
1

09 сен 2016, 00:12

Anonymous Перейти к последнему сообщению



Сейчас этот форум просматривают: нет зарегистрированных пользователей и гости: 1


Вы не можете начинать темы
Вы не можете отвечать на сообщения
Вы не можете редактировать свои сообщения
Вы не можете удалять свои сообщения
Вы не можете добавлять вложения

Перейти:  

!ВНИМАНИЕ!
 Ресурс не предоставляет электронные версии произведений, а занимается лишь коллекционированием и каталогизацией ссылок, присылаемых и публикуемых на форуме нашими читателями. Если вы являетесь правообладателем какого-либо представленного материала и не желаете чтобы ссылка на него находилась в нашем каталоге, свяжитесь с нами и мы незамедлительно удалим её. Файлы для обмена на трекере предоставлены пользователями сайта, и администрация не несёт ответственности за их содержание. Просьба не заливать файлы, защищенные авторскими правами, а также файлы нелегального содержания!