На всех торрентах на трекере установлена скидка на скачивание в размере 100 процентов(а).
 Возможность скачивания торрента НЕ зависит от ограничений при низком ратио, низком аплоаде, требуемом ратио или требуемом аплоаде.


Начать новую тему Ответить на тему
Статистика раздачи
Размер: 2.17 ГБ | Добавлен: 25 дек 2013, 23:08 | Скачали: 0
Сидеров: 0  [0 байт/сек]    Личеров: 0  [0 байт/сек]
Пред. тема | След. тема 

Автор
Сообщение

СообщениеДобавлено: 25 дек 2013, 23:08 

Название: Короли аферы
Оригинальное название: Save Angel Hope
Год выхода: 2007
Жанр: Комедия
Режиссер: Лукас Эрни

В ролях: Билли Бойд, Люк Мэбли, Ева Бертистл, Бернард Хилл, Элис Эванс, Тим МакИннерни, Эрих Фок, Элисон Кинг, Линда Вудхолл, Питер Рименс, Ральф Гассман, Клара Тим, Клер Тилль, Энн Оверсталл Комфорт, Анджела Милн, Джулиан Нест, Гарет Унвин, Марко Маас, Николас Де Пруссенаре, Тим Пробин, Клод Бреда, Джонатан Эванс-Джонс, Мари-Анна Джордаан, Х.П. Кайнд, Гэби Мейерс, Шила Молитор, Стив Престон

О фильме:
Полиция сбилась с ног, пытаясь поймать неуловимую шайку аферистов. В списке их «достижений» немало лихо прокрученных афер, обманутых бизнесменов и даже кинутых мафиози! Но, как говорится, и на старуху бывает проруха… После очередного «дела», проколовшись на пустяке, в лапы ФБР попадает главарь банды Винсент. Вот только тюремные стены заставляют его воображение работать даже лучше, чем прежде. И вскоре рождается план самой крупной и отчаянной аферы!



Страна: Люксембург, Швейцария, Великобритания, Enigma Pictures, Great British Films, IMS 6 LLP, Premiere Picture, SAH Crew Consortium, T Films S.A., Thema Production, Tricksfilm Production GmbH
Продолжительность: 01:39:49
Перевод: Профессиональный многоголосый
Дата релиза: 25.12.2013


Кодек: H.264
Качество: BDRip (AVC)
Видео: MPEG-4 AVC, 2350 Кбит/с, 1024x436
Звук: Русский, английский (AC3, 6 ch, 384 Кбит/с)

Общее
Уникальный идентификатор : 212222330526415660384951648291728563018 (0x9FA888BC465F9C3181E80CF085169B4A)
Полное имя : E:2Koroli.afery.2007.x264.BDRip.(AVC).ExKinoRay.mkv
Формат : Matroska
Размер файла : 2,17 Гбайт
Продолжительность : 1 ч. 39 м.
Общий поток : 3119 Кбит/сек
Название фильма : Koroli.afery.2007.x264.BDRip.(AVC).ExKinoRay
Дата кодирования : UTC 2013-12-25 16:19:04
Программа кодирования : mkvmerge v4.0.0 ('The Stars were mine') сборка от Jun 6 2010 16:18:42
Библиотека кодирования : libebml v1.0.0 + libmatroska v1.0.0

Видео
Идентификатор : 1
Формат : AVC
Формат/Информация : Advanced Video Codec
Профиль формата : High@L4.1
Параметр CABAC формата : Да
Параметр ReFrames формата : 8 кадров
Параметры GOP формата : M=2, N=3
Идентификатор кодека : V_MPEG4/ISO/AVC
Продолжительность : 1 ч. 39 м.
Битрейт : 2350 Кбит/сек
Ширина : 1024 пикс.
Высота : 436 пикс.
Соотношение сторон : 2,35:1
Частота кадров : 23,976 кадр/сек
Цветовое пространство : YUV
Подвыборка цветности : 4:2:0
Битовая глубина : 8 бит
Тип развёртки : Прогрессивная
Бит/(Пиксели*Кадры) : 0.220
Размер потока : 1,60 Гбайт (73%)
Заголовок : Rip by Enigma-Vladislav71
Библиотека кодирования : x264 core 129 r2245 bc13772
Настройки программы : cabac=1 / ref=8 / deblock=1:-2:-2 / analyse=0x3:0x133 / me=umh / subme=11 / psy=1 / psy_rd=1.00:0.00 / mixed_ref=1 / me_range=48 / chroma_me=1 / trellis=2 / 8x8dct=1 / cqm=0 / deadzone=21,11 / fast_pskip=0 / chroma_qp_offset=-2 / threads=3 / lookahead_threads=1 / sliced_threads=0 / nr=0 / decimate=0 / interlaced=0 / bluray_compat=0 / constrained_intra=0 / bframes=8 / b_pyramid=2 / b_adapt=2 / b_bias=0 / direct=3 / weightb=1 / open_gop=0 / weightp=2 / keyint=240 / keyint_min=23 / scenecut=40 / intra_refresh=0 / rc=2pass / mbtree=0 / bitrate=2350 / ratetol=1.0 / qcomp=0.60 / qpmin=10 / qpmax=51 / qpstep=4 / cplxblur=20.0 / qblur=0.5 / ip_ratio=1.40 / pb_ratio=1.30 / aq=2:1.00
Язык : English

Аудио #1
Идентификатор : 2
Формат : AC-3
Формат/Информация : Audio Coding 3
Расширение режима : CM (complete main)
Идентификатор кодека : A_AC3
Продолжительность : 1 ч. 39 м.
Вид битрейта : Постоянный
Битрейт : 384 Кбит/сек
Каналы : 6 каналов
Расположение каналов : Front: L C R, Side: L R, LFE
Частота : 48,0 КГц
Битовая глубина : 16 бит
Метод сжатия : С потерями
Размер потока : 274 Мбайт (12%)
Язык : Russian

Аудио #2
Идентификатор : 3
Формат : AC-3
Формат/Информация : Audio Coding 3
Расширение режима : CM (complete main)
Идентификатор кодека : A_AC3
Продолжительность : 1 ч. 39 м.
Вид битрейта : Постоянный
Битрейт : 384 Кбит/сек
Каналы : 6 каналов
Расположение каналов : Front: L C R, Side: L R, LFE
Частота : 48,0 КГц
Битовая глубина : 16 бит
Метод сжатия : С потерями
Размер потока : 274 Мбайт (12%)
Язык : English



Релиз от:

Авторы релиза:
загрузка...
Правила, инструкции, FAQ!!!
Торрент  Добавлен [25 дек 2013, 23:08] Скачать торрент
Скачать торрент
[ Размер 11.43 КБ / Просмотров 9 ]

Статус  
 
Размер  2.17 ГБ
Приватный: Нет (DHT включён)
.torrent скачан  0
Как залить торрент? | Как скачать Torrent? | Как смотреть и слушать онлайн?  


     Отправить личное сообщение
   
Страница 1 из 1
Показать сообщения за:  Поле сортировки  
Начать новую тему Ответить на тему

   Похожие торренты   Автор   Ответы   Просмотры   Последнее сообщение 
В этой теме нет новых непрочитанных сообщений. Скачать торрент Проверен (Melodic Heavy Metal) Zoltar Speaks - Save As I Save - 2013, MP3, 320 kbps

в форуме Heavy, Power, Progressive (Metal), Размер: 133.15 МБ, Здоровье: 0%

Anonymous

0
0|0

0
0

08 окт 2016, 18:01

Anonymous Перейти к последнему сообщению

В этой теме нет новых непрочитанных сообщений. Скачать торрент Проверен (rock-n-roll, blues, chanson, cabare) Короли Кухни - Короли Кухни - 2006, MP3 (tracks), 192 kbps

в форуме Русский Рок, Размер: 66.45 МБ, Здоровье: 0%

Anonymous

0
0|0

2
0

22 авг 2016, 01:55

Anonymous Перейти к последнему сообщению

В этой теме нет новых непрочитанных сообщений. Скачать торрент Проверен (rock-n-roll, blues, chanson, cabare) Короли Кухни - Короли Кухни 5 - 2010, MP3, 320 kbps

в форуме Русский Рок, Размер: 166.58 МБ, Здоровье: 0%

Anonymous

0
0|0

1
0

22 авг 2016, 11:09

Anonymous Перейти к последнему сообщению

В этой теме нет новых непрочитанных сообщений. Скачать торрент Короли лета / The Kings of Summer (2013) BDRip | A

в форуме Драмы, Мелодрамы, Размер: 1.45 ГБ, Здоровье: 0%

Anonymous

0
0|0

24
0

05 дек 2013, 21:06

Anonymous Перейти к последнему сообщению

В этой теме нет новых непрочитанных сообщений. Скачать торрент Проверен Короли улиц / Street Kings (2008) BDRip 720p | D, P

в форуме 720p | 1080p, Размер: 4.37 ГБ, Здоровье: 100%

Anonymous

0
24|1

35
259

25 окт 2014, 17:58

Anonymous Перейти к последнему сообщению



Сейчас этот форум просматривают: нет зарегистрированных пользователей и гости: 1


Вы не можете начинать темы
Вы не можете отвечать на сообщения
Вы не можете редактировать свои сообщения
Вы не можете удалять свои сообщения
Вы не можете добавлять вложения

Перейти:  

!ВНИМАНИЕ!
 Ресурс не предоставляет электронные версии произведений, а занимается лишь коллекционированием и каталогизацией ссылок, присылаемых и публикуемых на форуме нашими читателями. Если вы являетесь правообладателем какого-либо представленного материала и не желаете чтобы ссылка на него находилась в нашем каталоге, свяжитесь с нами и мы незамедлительно удалим её. Файлы для обмена на трекере предоставлены пользователями сайта, и администрация не несёт ответственности за их содержание. Просьба не заливать файлы, защищенные авторскими правами, а также файлы нелегального содержания!