На всех торрентах на трекере установлена скидка на скачивание в размере 100 процентов(а).
 Возможность скачивания торрента НЕ зависит от ограничений при низком ратио, низком аплоаде, требуемом ратио или требуемом аплоаде.


Начать новую тему Ответить на тему
Статистика раздачи
Размер: 4.25 ГБ | Добавлен: 21 окт 2012, 14:18 | Скачали: 0
Сидеров: 0  [0 байт/сек]    Личеров: 0  [0 байт/сек]
Пред. тема | След. тема 

Автор
Сообщение

СообщениеДобавлено: 21 окт 2012, 14:18 

Страна: Гонконг
Жанр: криминал, боевик
Год выпуска: 2012
Продолжительность: 01:29:10
Перевод: Любительский одноголосый закадровый - den904
Перевод на русский: Skyworker
Cубтитры: английские, китайские (Mandarin), китайские (Cantonese)
Оригинальная аудиодорожка: Китайский (Cantonese), Китайский (Mandarin)Режиссер: Поу-Сои Чинг / Pou-Soi Cheang
В ролях: Энтони Вонг, Шон Юе, Го Сяодун, Барби Хсю, Джози Хо, Ка Танг Лам, Мишель Йе

Описание: Есть четыре персонажа - два копа и два преступника. Первый коп - молодой и борзый, он любит гонять по автостраде за нарушителями, поэтому на собственные деньги прокачивает свою патрульную машину. Второй - бывалый ветеран, три дня до пенсии. Он способен делать на дороге крутые штуки; знает, что молодой напарник еще не созрел для настоящего драйва, но предпочитает не лезть в бутылку без лишнего повода.
Первый преступник - налетчик и стрелок, безжалостный убийца, профессиональный «гастролер». Он случайно попадает в гонконгский КПЗ, поэтому срочно вызывает с материка своего напарника. Напарник - опытный водила для гоп-стопов с 20-летним стажем - организует побег своего партнера. После кровавой бани, учиненной в стенах КПЗ, преступникам надо сделать последний большой гоп-стоп и сбежать из города, все выезды из которого перекрыты полицейскими патрулями.

Качество видео
: BDRip - [Motorway.2012.720p.BluRay.x264.Dual.Audio-HDChina]
Формат видео: MKV
Видео: MPEG-4 AVC, 1280x690, (1,85:1), 24 fps, ~4200 kbps avg, 0.198 bb/p
Аудио 1: pic 48 kHz, AC3 Dolby Digital, 3/2 (L,C,R,l,r) + LFE ch, ~448 kbps - VO
Аудио 2: pic 48 kHz, DTS, 3/2 (L,C,R,l,r) + LFE ch, ~1510.00 kbps - Cantonese
Аудио 3: pic 48 kHz, AC3 Dolby Digital, 3/2 (L,C,R,l,r) + LFE ch, ~640 kbps - Mandarin
Формат субтитров: prerendered (IDX+SUB)

Полное имя : H:Motorway.2012.720p.BluRay.x264.Dual.Audio-HDChinaMotorway.2012.720p.BDRip.x264-HDChina.mkv
Формат : Matroska
Версия формата : Version 2
Размер файла : 4,25 Гбайт
Продолжительность : 1 ч. 29 м.
Общий поток : 6815 Кбит/сек
Дата кодирования : UTC 2012-08-30 01:25:19
Программа кодирования : mkvmerge v4.5.0 ('Speed of Light') сборка от Feb 1 2011 02:10:32
Библиотека кодирования : libebml v1.2.0 + libmatroska v1.1.0
Видео
Идентификатор : 1
Формат : AVC
Формат/Информация : Advanced Video Codec
Профиль формата : High@L4.1
Параметр CABAC формата : Да
Параметр ReFrames формата : 9 кадров
Идентификатор кодека : V_MPEG4/ISO/AVC
Продолжительность : 1 ч. 29 м.
Битрейт : 4200 Кбит/сек
Ширина : 1280 пикселей
Высота : 690 пикселей
Соотношение сторон : 1,855
Частота кадров : 24,000 кадра/сек
Цветовое пространство : YUV
Субдискретизация насыщенности : 4:2:0
Битовая глубина : 8 бит
Тип развёртки : Прогрессивная
Бит/(Пиксели*Кадры) : 0.198
Размер потока : 2,54 Гбайт (60%)
Библиотека кодирования : x264 core 125 r2208 d9d2288
Настройки программы : cabac=1 / ref=9 / deblock=1:-3:-3 / analyse=0x3:0x113 / me=umh / subme=10 / psy=1 / psy_rd=1.10:0.00 / mixed_ref=1 / me_range=32 / chroma_me=1 / trellis=2 / 8x8dct=1 / cqm=0 / deadzone=21,11 / fast_pskip=0 / chroma_qp_offset=-2 / threads=18 / lookahead_threads=3 / sliced_threads=0 / nr=0 / decimate=0 / interlaced=0 / bluray_compat=0 / constrained_intra=0 / bframes=8 / b_pyramid=2 / b_adapt=2 / b_bias=0 / direct=3 / weightb=1 / open_gop=0 / weightp=2 / keyint=240 / keyint_min=24 / scenecut=40 / intra_refresh=0 / rc_lookahead=240 / rc=2pass / mbtree=1 / bitrate=4200 / ratetol=1.0 / qcomp=0.70 / qpmin=0 / qpmax=69 / qpstep=4 / cplxblur=20.0 / qblur=0.5 / ip_ratio=1.20 / aq=1:1.10
Язык : English
Default : Да
Forced : Нет
Аудио #1
Идентификатор : 2
Формат : AC-3
Формат/Информация : Audio Coding 3
Расширение режима : CM (complete main)
Идентификатор кодека : A_AC3
Продолжительность : 1 ч. 29 м.
Вид битрейта : Постоянный
Битрейт : 448 Кбит/сек
Каналы : 6 каналов
Расположение каналов : Front: L C R, Side: L R, LFE
Частота : 48,0 КГц
Битовая глубина : 16 бит
Метод сжатия : С потерями
Размер потока : 286 Мбайт (7%)
Заголовок : VO Rus
Язык : Russian
Default : Да
Forced : Да
Аудио #2
Идентификатор : 3
Формат : DTS
Формат/Информация : Digital Theater Systems
Идентификатор кодека : A_DTS
Продолжительность : 1 ч. 29 м.
Вид битрейта : Постоянный
Битрейт : 1510 Кбит/сек
Каналы : 6 каналов
Расположение каналов : Front: L C R, Side: L R, LFE
Частота : 48,0 КГц
Битовая глубина : 16 бит
Метод сжатия : С потерями
Задержка видео : 11 мс.
Размер потока : 963 Мбайт (22%)
Заголовок : Cantonese DTS
Язык : Chinese
Default : Нет
Forced : Нет
Аудио #3
Идентификатор : 4
Формат : AC-3
Формат/Информация : Audio Coding 3
Расширение режима : CM (complete main)
Идентификатор кодека : A_AC3
Продолжительность : 1 ч. 29 м.
Вид битрейта : Постоянный
Битрейт : 640 Кбит/сек
Каналы : 6 каналов
Расположение каналов : Front: L C R, Side: L R, LFE
Частота : 48,0 КГц
Битовая глубина : 16 бит
Метод сжатия : С потерями
Размер потока : 408 Мбайт (9%)
Заголовок : Mandarin
Язык : Chinese
Default : Нет
Forced : Нет
Текст #1
Идентификатор : 5
Формат : PGS
Режим смешивания : zlib
Идентификатор кодека : S_HDMV/PGS
Идентификатор кодека/Информация : The same subtitle format used on BDs/HD-DVDs
Заголовок : CHS
Язык : Chinese
Default : Нет
Forced : Нет
Текст #2
Идентификатор : 6
Формат : PGS
Режим смешивания : zlib
Идентификатор кодека : S_HDMV/PGS
Идентификатор кодека/Информация : The same subtitle format used on BDs/HD-DVDs
Заголовок : CHT
Язык : Chinese
Default : Нет
Forced : Нет
Текст #3
Идентификатор : 7
Формат : PGS
Режим смешивания : zlib
Идентификатор кодека : S_HDMV/PGS
Идентификатор кодека/Информация : The same subtitle format used on BDs/HD-DVDs
Язык : English
Default : Нет
Forced : Нет
Меню
00:00:00.000 : en:00:00:00.000
00:03:27.500 : en:00:03:27.500
00:07:43.542 : en:00:07:43.542
00:11:43.500 : en:00:11:43.500
00:15:59.667 : en:00:15:59.667
00:20:38.083 : en:00:20:38.083
00:24:34.500 : en:00:24:34.500
00:27:42.500 : en:00:27:42.500
00:34:02.083 : en:00:34:02.083
00:39:55.708 : en:00:39:55.708
00:44:04.375 : en:00:44:04.375
00:47:28.750 : en:00:47:28.750
00:51:44.792 : en:00:51:44.792
00:58:13.042 : en:00:58:13.042
01:00:56.708 : en:01:00:56.708
01:04:16.875 : en:01:04:16.875
01:08:34.750 : en:01:08:34.750
01:12:51.083 : en:01:12:51.083
01:19:16.875 : en:01:19:16.875
01:23:25.708 : en:01:23:25.708



загрузка...
Правила, инструкции, FAQ!!!
Торрент  Добавлен [21 окт 2012, 14:18] Скачать торрент
Скачать торрент
[ Размер 11.1 КБ / Просмотров 21 ]

Статус
Проверен 
 
Размер  4.25 ГБ
Приватный: Нет (DHT включён)
.torrent скачан  0
Как залить торрент? | Как скачать Torrent? | Как смотреть и слушать онлайн?  


     Отправить личное сообщение
   
Страница 1 из 1
Показать сообщения за:  Поле сортировки  
Начать новую тему Ответить на тему

   Похожие торренты   Автор   Ответы   Просмотры   Последнее сообщение 
В этой теме нет новых непрочитанных сообщений. Скачать торрент Проверен Rammstein: Videos 1995-2012 [2012, Industrial , BDRip (720p)]

в форуме Концерты (HD-Video), Размер: 21.24 ГБ, Здоровье: 100%

Гость

0
56|37

778
11

26 апр 2015, 22:42

Гость Перейти к последнему сообщению

В этой теме нет новых непрочитанных сообщений. Скачать торрент Проверен Coldplay - Live 2012 [2012, Alternative rock, post-Britpop, BDRip 1080p]

в форуме Концерты (HD-Video), Размер: 6.56 ГБ, Здоровье: 100%

Anonymous

0
1|0

0
0

23 окт 2016, 12:43

Anonymous Перейти к последнему сообщению

В этой теме нет новых непрочитанных сообщений. Скачать торрент Проверен [iPad] 2012 / 2012 (Роланд Эммерих / Roland Emmerich) [2009, фантастика, боевик, приключения, BDRip, 720p]

в форуме Фильмы для iPod, iPhone, iPad, Размер: 4.31 ГБ, Здоровье: 100%

Гость

0
5|1

31
0

11 май 2015, 01:37

Гость Перейти к последнему сообщению

В этой теме нет новых непрочитанных сообщений. Скачать торрент Проверен Scandal - Japan Title Match Live 2012 - SCANDAL vs Budokan - [2012, JRock, JPop, BDRip 720p]

в форуме Концерты (HD-Video), Размер: 7.17 ГБ, Здоровье: 0%

Anonymous

0
0|0

4
0

23 окт 2016, 11:15

Anonymous Перейти к последнему сообщению

В этой теме нет новых непрочитанных сообщений. Скачать торрент Проверен SCANDAL - Japan Title Match Live 2012 - SCANDAL vs Budokan - [2012, JRock, JPop, BDRip 1080p]

в форуме Концерты (HD-Video), Размер: 12.6 ГБ, Здоровье: 100%

Anonymous

0
5|1

9
0

23 окт 2016, 19:32

Anonymous Перейти к последнему сообщению



Сейчас этот форум просматривают: нет зарегистрированных пользователей и гости: 1


Вы не можете начинать темы
Вы не можете отвечать на сообщения
Вы не можете редактировать свои сообщения
Вы не можете удалять свои сообщения
Вы не можете добавлять вложения

Перейти:  

!ВНИМАНИЕ!
 Ресурс не предоставляет электронные версии произведений, а занимается лишь коллекционированием и каталогизацией ссылок, присылаемых и публикуемых на форуме нашими читателями. Если вы являетесь правообладателем какого-либо представленного материала и не желаете чтобы ссылка на него находилась в нашем каталоге, свяжитесь с нами и мы незамедлительно удалим её. Файлы для обмена на трекере предоставлены пользователями сайта, и администрация не несёт ответственности за их содержание. Просьба не заливать файлы, защищенные авторскими правами, а также файлы нелегального содержания!