На всех торрентах на трекере установлена скидка на скачивание в размере 100 процентов(а).
 Возможность скачивания торрента НЕ зависит от ограничений при низком ратио, низком аплоаде, требуемом ратио или требуемом аплоаде.


Начать новую тему Ответить на тему
Статистика раздачи
Размер: 21.97 ГБ | Добавлен: 31 авг 2013, 21:13 | Скачали: 3
Сидеров: 20  [0 байт/сек]    Личеров: 1  [0 байт/сек]
Пред. тема | След. тема 

Автор
Сообщение

СообщениеДобавлено: 31 авг 2013, 21:13 

Иллюзия обмана / Now You See Me (2013) BDRemux


Год выпуска: 2013
Производство: Франция, США / Kurtzman Orci Paper Products, Second Line Stages, See Me Louisiana, SOIXAN7E QUIN5E, Summit Entertainment
Жанр: Триллер, Криминал, Детектив
Перевод: Дублированный (iTunes Russia)
Субтитры: Вшитые отключаемые
Язык субтитров: Английский (Full, SDH)

Дата мировой премьеры: 21 мая 2013
Дата российской премьеры: 12 июня 2013, «Централ Партнершип»
Дата выхода DVD релиза: 17 сентября 2013, «CD Land»

Режиссер: Луи Летерье
Продюсер: Бобби Коэн, Алекс Куртцман, Роберто Орси
Актеры: Джесси Айзенберг, Дэйв Франко, Морган Фримен, Марк Руффало, Айла Фишер, Мелани Лоран, Вуди Харрельсон, Майкл Кейн, Майкл Келли, Коммон, Дэвид Уоршофски, Джессика Линдси, Каитриона Бэлфи
Описание фильма:
Команда лучших иллюзионистов мира проворачивает дерзкие ограбления прямо во время своих шоу, играя в кошки-мышки с агентами ФБР.



Продолжительность: 01:55:21
Качество видео: BDRemux

Видеокодек: MPEG-4 AVC/H.264
Битрейт видео: ~21221 kb/s
Размер кадра: 1920 х 1080
Аудиокодек: AC-3 5.1, DTS-HD MA, AC-3 2.0
Аудио 1: Русский, AC-3 5.1, / 5.1 / 48 kHz / 384 kbps / 16-bit (Дублированный)
Аудио 2: Английский, DTS-HD Master Audio / 7.1 / 48 kHz / 5210 kbps / 24-bit (DTS Core: 5.1 / 48 kHz / 1509 kbps / 24-bit)
Аудио 3: Английский, AC-3 2.0, / 2.0 / 48 kHz / 224 kbps / 16-bit (Descriptive)
Аудио 4: Английский, AC-3 2.0, / 2.0 / 48 kHz / 224 kbps / 16-bit (Commentary)

Сэмпл: Скачать
Общее
Уникальный идентификатор : 181587760130195137504882143209138896212 (0x889C87CD557311FE90F06EC4513F3D54)
Полное имя : Now.You.See.Me.2013.1080p.BDRemux.mkv
Формат : Matroska
Версия формата : Version 4 / Version 2
Размер файла : 22,0 Гбайт
Продолжительность : 1 ч. 55 м.
Режим общего битрейта : Переменный
Общий поток : 27,3 Мбит/сек
Дата кодирования : UTC 2013-08-29 20:29:30
Программа кодирования : mkvmerge v6.3.0 ('You can't stop me!') built on Jun 28 2013 20:09:41
Библиотека кодирования : libebml v1.3.0 + libmatroska v1.4.0

Видео
Идентификатор : 1
Формат : AVC
Формат/Информация : Advanced Video Codec
Профиль формата :
Параметр CABAC формата : Да
Параметр ReFrames формата : 4 кадра
Идентификатор кодека : V_MPEG4/ISO/AVC
Продолжительность : 1 ч. 55 м.
Вид битрейта : Переменный
Максимальный битрейт : 37,0 Мбит/сек
Ширина : 1920 пикселей
Высота : 1080 пикселей
Соотношение сторон : 16:9
Режим частоты кадров : Постоянный
Частота кадров : 23,976 кадра/сек
Цветовое пространство : YUV
Субдискретизация насыщенности : 4:2:0
Битовая глубина : 8 бит
Тип развёртки : Прогрессивная
Язык : English
Default : Нет
Forced : Нет

Аудио #1
Идентификатор : 2
Формат : AC-3
Формат/Информация : Audio Coding 3
Расширение режима : CM (complete main)
Параметр Endianness формата : Big
Идентификатор кодека : A_AC3
Продолжительность : 1 ч. 55 м.
Вид битрейта : Постоянный
Битрейт : 384 Кбит/сек
Каналы : 6 каналов
Расположение каналов : Front: L C R, Side: L R, LFE
Частота : 48,0 КГц
Битовая глубина : 16 бит
Метод сжатия : С потерями
Размер потока : 317 Мбайт (1%)
Язык : Russian
Default : Да
Forced : Нет

Аудио #2
Идентификатор : 3
Формат : DTS
Формат/Информация : Digital Theater Systems
Профиль формата : MA / Core
Режим : 16
Параметр Endianness формата : Big
Идентификатор кодека : A_DTS
Продолжительность : 1 ч. 55 м.
Вид битрейта : Переменный
Битрейт : Неизвестно / 1509 Кбит/сек
Каналы : 8 каналов / 6 каналов
Расположение каналов : Front: L C R, Side: L R, Back: L R, LFE / Front: L C R, Side: L R, LFE
Частота : 48,0 КГц
Битовая глубина : 24 бит
Метод сжатия : Без потерь / Lossy
Язык : English
Default : Нет
Forced : Нет

Аудио #3
Идентификатор : 4
Формат : AC-3
Формат/Информация : Audio Coding 3
Профиль формата : Dolby Digital
Расширение режима : CM (complete main)
Параметр Endianness формата : Big
Идентификатор кодека : A_AC3
Продолжительность : 1 ч. 55 м.
Вид битрейта : Постоянный
Битрейт : 224 Кбит/сек
Каналы : 2 канала
Расположение каналов : Front: L R
Частота : 48,0 КГц
Битовая глубина : 16 бит
Метод сжатия : С потерями
Размер потока : 185 Мбайт (1%)
Заголовок : Descriptive
Язык : English
Default : Нет
Forced : Нет

Аудио #4
Идентификатор : 5
Формат : AC-3
Формат/Информация : Audio Coding 3
Профиль формата : Dolby Digital
Расширение режима : CM (complete main)
Параметр Endianness формата : Big
Идентификатор кодека : A_AC3
Продолжительность : 1 ч. 55 м.
Вид битрейта : Постоянный
Битрейт : 224 Кбит/сек
Каналы : 2 канала
Расположение каналов : Front: L R
Частота : 48,0 КГц
Битовая глубина : 16 бит
Метод сжатия : С потерями
Размер потока : 185 Мбайт (1%)
Заголовок : Commentary
Язык : English
Default : Нет
Forced : Нет

Текст #1
Идентификатор : 6
Формат : UTF-8
Идентификатор кодека : S_TEXT/UTF8
Идентификатор кодека/Информация : UTF-8 Plain Text
Язык : English
Default : Нет
Forced : Нет

Текст #2
Идентификатор : 7
Формат : UTF-8
Идентификатор кодека : S_TEXT/UTF8
Идентификатор кодека/Информация : UTF-8 Plain Text
Язык : English
Default : Нет
Forced : Нет

Меню
00:00:00.000 : en:00:00:00.000
00:07:41.794 : en:00:07:41.794
00:13:34.271 : en:00:13:34.271
00:20:17.466 : en:00:20:17.466
00:30:13.144 : en:00:30:13.144
00:37:35.169 : en:00:37:35.169
00:44:45.724 : en:00:44:45.724
00:51:15.905 : en:00:51:15.905
00:58:56.908 : en:00:58:56.908
01:04:31.909 : en:01:04:31.909
01:13:21.938 : en:01:13:21.938
01:20:44.130 : en:01:20:44.130
01:27:06.053 : en:01:27:06.053
01:35:46.448 : en:01:35:46.448
01:41:00.178 : en:01:41:00.178
01:45:47.507 : en:01:45:47.507
Скриншоты:




Время раздачи: 24/7
загрузка...
Правила, инструкции, FAQ!!!
Торрент  Добавлен [31 авг 2013, 21:13] Скачать торрент
Скачать торрент
[ Размер 110.56 КБ / Просмотров 17 ]

Статус  
 
Размер  21.97 ГБ
Приватный: Нет (DHT включён)
.torrent скачан  3
Как залить торрент? | Как скачать Torrent? | Как смотреть и слушать онлайн?  


     Отправить личное сообщение
   
Страница 1 из 1
Показать сообщения за:  Поле сортировки  
Начать новую тему Ответить на тему

   Похожие торренты   Автор   Ответы   Просмотры   Последнее сообщение 
В этой теме нет новых непрочитанных сообщений. Скачать торрент Проверен Иллюзия обмана 2 / Now You See Me 2 (2016) BDRip 1080p | US Transfer | Лицензия

в форуме 720p | 1080p, Размер: 17.47 ГБ, Здоровье: 100%

Гость

0
153|100

40
209

29 авг 2016, 19:47

Гость Перейти к последнему сообщению

В этой теме нет новых непрочитанных сообщений. Скачать торрент Проверен Иллюзия обмана 2 / Now You See Me 2 (2016) BDRip 1080p | RUS Transfer | Лицензия

в форуме 720p | 1080p, Размер: 19.87 ГБ, Здоровье: 100%

Гость

0
1071|48

100
142

20 авг 2016, 23:37

Гость Перейти к последнему сообщению

В этой теме нет новых непрочитанных сообщений. Скачать торрент Проверен Иллюзия обмана 2 / Now You See Me 2 (2016) BDRip | RUS Transfer | Лицензия

в форуме Боевики, Размер: 1.46 ГБ, Здоровье: 100%

Гость

0
146|4

293
35

20 авг 2016, 23:32

Гость Перейти к последнему сообщению

В этой теме нет новых непрочитанных сообщений. Скачать торрент Проверен Опасная иллюзия / The Necessary Death of Charlie Countryman (2013) BDRip 1080p от NNNB

в форуме 720p | 1080p, Размер: 7.75 ГБ, Здоровье: 100%

Гость

0
201|19

28
918

07 дек 2014, 10:54

Гость Перейти к последнему сообщению

В этой теме нет новых непрочитанных сообщений. Скачать торрент Вий (2013) BDRemux [1080p]

в форуме BD-Remux, Размер: 22.51 ГБ, Здоровье: 80%

Anonymous

0
4|5

192
5

15 мар 2014, 23:33

Anonymous Перейти к последнему сообщению



Сейчас этот форум просматривают: нет зарегистрированных пользователей и гости: 1


Вы не можете начинать темы
Вы не можете отвечать на сообщения
Вы не можете редактировать свои сообщения
Вы не можете удалять свои сообщения
Вы не можете добавлять вложения

Перейти:  

!ВНИМАНИЕ!
 Ресурс не предоставляет электронные версии произведений, а занимается лишь коллекционированием и каталогизацией ссылок, присылаемых и публикуемых на форуме нашими читателями. Если вы являетесь правообладателем какого-либо представленного материала и не желаете чтобы ссылка на него находилась в нашем каталоге, свяжитесь с нами и мы незамедлительно удалим её. Файлы для обмена на трекере предоставлены пользователями сайта, и администрация не несёт ответственности за их содержание. Просьба не заливать файлы, защищенные авторскими правами, а также файлы нелегального содержания!