На всех торрентах на трекере установлена скидка на скачивание в размере 100 процентов(а).
 Возможность скачивания торрента НЕ зависит от ограничений при низком ратио, низком аплоаде, требуемом ратио или требуемом аплоаде.


Начать новую тему Ответить на тему
Статистика раздачи
Размер: 11.68 ГБ | Добавлен: 12 июл 2013, 12:08 | Скачали: 0
Сидеров: 0  [0 байт/сек]    Личеров: 0  [0 байт/сек]
Пред. тема | След. тема 

Автор
Сообщение

СообщениеДобавлено: 12 июл 2013, 12:08 

Название: Татуировщик
Оригинальное название: The Tattooist
Год выхода: 2007
Жанр: Ужасы, триллер
Режиссер: Питер Бюргер

В ролях: Джейсон Бер, Миа Блейк, Дэвид Фейн, Робби Магасива, Каролин Чон, Майкл Херст, Нэтаниэл Лис, Джон Бах, Тимоти Бальм, Чен Бангжи, Джаред Блэкистон, Элисон Брюс, Стюарт Девени, Изабелла Галуццо, Пип Холл, Лорен Джексон, Мема Майли, Мэттью Ридж, Тревор Сай Луи

О фильме:
Сюжет рассказывает историю татуировщика, которого завораживают самоанские традиции украшения человеческого кожного покрова. Рьяное желание овладеть секретами мастерства сталкивает протагониста с местным мистицизмом и выпущенным на свободу смертельно опасным духом…
Фильм «Татуировщик» стал дебютом Питера Бургера в игровом кино.
Съемки проходили в разных местах Окленда (Новая Зеландия), а также в Сингапуре.
Фильм снимался на протяжении сентября-ноября 2006 года.
Огромная благодарность Media-Art-Club за созданный постер к раздаче
Рейтинг R - Детям до 17 лет обязательно присутствие родителей
Рейтинг R получают фильмы, в содержании которых обязательно содержится материал, предназначенный только для взрослой аудитории. Родителям рекомендуется хорошо подумать, прежде чем посмотреть такой фильм вместе со своими детьми.

Фильм, получивший рейтинг R, скорее всего содержит сексуальные сцены, эпизоды с употреблением наркотиков, нецензурную брань, фрагменты с насилием и т.д.
General
Unique ID : 246464211835443947479083274454762189074 (0xB96B47D40CA9B2A1911A603AB7F2F112)
Complete name : G:Tatuirovschik.2007.MPEG-2.Blu-ray.Remux.1080p-MediaClub.mkv
Format : Matroska
Format version : Version 2
File size : 11.7 GiB
Duration : 1h 31mn
Overall bit rate mode : Variable
Overall bit rate : 18.3 Mbps
Movie name : Tatuirovschik (2007) BDRemux 1080p-MediaClub-=[Викс]=
Encoded date : UTC 2013-07-11 21:02:44
Writing application : mkvmerge v5.8.0 ('No Sleep / Pillow') built on Sep 2 2012 15:37:04
Writing library : libebml v1.2.3 + libmatroska v1.3.0

Video
ID : 1
Format : MPEG Video
Format version : Version 2
Format profile : Main@High
Format settings, BVOP : No
Format settings, Matrix : Custom
Codec ID : V_MPEG2
Codec ID/Info : MPEG 1 or 2 Video
Duration : 1h 31mn
Bit rate mode : Variable
Bit rate : 16.6 Mbps
Maximum bit rate : 23.0 Mbps
Width : 1 920 pixels
Height : 1 080 pixels
Display aspect ratio : 16:9
Frame rate mode : Constant
Frame rate : 23.976 fps
Color space : YUV
Chroma subsampling : 4:2:0
Bit depth : 8 bits
Scan type : Progressive
Compression mode : Lossy
Bits/(Pixel*Frame) : 0.335
Time code of first frame : 00:59:55:10
Time code source : Group of pictures header
Stream size : 10.6 GiB (91%)
Language : English
Default : No
Forced : No

Audio #1
ID : 2
Format : AC-3
Format/Info : Audio Coding 3
Mode extension : CM (complete main)
Format settings, Endianness : Big
Codec ID : A_AC3
Duration : 1h 31mn
Bit rate mode : Constant
Bit rate : 192 Kbps
Channel(s) : 2 channels
Channel positions : Front: L R
Sampling rate : 48.0 KHz
Bit depth : 16 bits
Compression mode : Lossy
Stream size : 125 MiB (1%)
Language : Russian
Default : Yes
Forced : No

Audio #2
ID : 3
Format : DTS
Format/Info : Digital Theater Systems
Mode : 16
Format settings, Endianness : Big
Codec ID : A_DTS
Duration : 1h 31mn
Bit rate mode : Constant
Bit rate : 1 152 Kbps
Channel(s) : 6 channels
Channel positions : Front: L C R, Side: L R, LFE
Sampling rate : 48.0 KHz
Bit depth : 24 bits
Compression mode : Lossy
Stream size : 751 MiB (6%)
Language : English
Default : No
Forced : No

Menu
00:00:00.000 : :Chapter 01
00:08:40.310 : :Chapter 02
00:14:16.396 : :Chapter 03
00:21:28.619 : :Chapter 04
00:27:37.864 : :Chapter 05
00:36:45.036 : :Chapter 06
00:43:54.465 : :Chapter 07
00:49:31.677 : :Chapter 08
00:55:56.186 : :Chapter 09
01:00:07.729 : :Chapter 10
01:09:48.058 : :Chapter 11
01:18:20.654 : :Chapter 12
01:31:11.424 : :Chapter 13


Страна: Нидерланды, Новая Зеландия, Сингапур
Студия: Daydream Productions, Eyeworks Touchdown, Mediacorp Raintree Pictures, New Zealand Film Commission
Продолжительность: 01:31:11
Перевод: Профессиональный двухголосый


Кодек: MPEG-2
Качество: Blu-Ray Remux (1080p)
Видео: MPEG-2, 16.6 Мбит/с, 1920x1080, 23.976 кадр/с
Звук:
Аудио #1: Русский (AC3, 2 ch, 192 Кбит/с) / Профессиональный двухголосый
Аудио #2: Английский (DTS, 6 ch, 1152 Кбит/с)

Семпл



Релиз от: Работа с аудио - Викс
загрузка...
Правила, инструкции, FAQ!!!
Торрент  Добавлен [12 июл 2013, 12:08] Скачать торрент
Скачать торрент
[ Размер 59.01 КБ / Просмотров 6 ]

Статус  
 
Размер  11.68 ГБ
Приватный: Нет (DHT включён)
.torrent скачан  0
Как залить торрент? | Как скачать Torrent? | Как смотреть и слушать онлайн?  


     Отправить личное сообщение
   
Страница 1 из 1
Показать сообщения за:  Поле сортировки  
Начать новую тему Ответить на тему

   Похожие торренты   Автор   Ответы   Просмотры   Последнее сообщение 
В этой теме нет новых непрочитанных сообщений. Скачать торрент Проверен Рататуй / Ratatouille (2007) BD-Remux 1080p | 3D-Video

в форуме HD-Video в 3D, Размер: 31.56 ГБ, Здоровье: 100%

Anonymous

0
18|2

65
112

22 июл 2014, 13:26

Anonymous Перейти к последнему сообщению

В этой теме нет новых непрочитанных сообщений. Скачать торрент Проверен Dave Matthews and Tim Reynolds: Live at Radio City [Blu-Ray Remux 1080p] [2007, Rock]

в форуме Концерты (HD-Video), Размер: 35.87 ГБ, Здоровье: 100%

Anonymous

0
1|0

0
0

23 окт 2016, 10:49

Anonymous Перейти к последнему сообщению

В этой теме нет новых непрочитанных сообщений. Скачать торрент Проверен U2 - Rattle And Hum.Blu-ray Remux 1080p (Phil Joanou) [1988, PoP\Rock]

в форуме Концерты (HD-Video), Размер: 20.18 ГБ, Здоровье: 100%

Anonymous

0
1|0

5
0

23 окт 2016, 16:40

Anonymous Перейти к последнему сообщению

В этой теме нет новых непрочитанных сообщений. Скачать торрент Незаконченная жизнь / An Unfinished Life (2005) Blu-Ray Remux 1080p

в форуме BD-Remux, Размер: 17.48 ГБ, Здоровье: 100%

Anonymous

0
3|0

74
2

04 янв 2014, 17:06

Anonymous Перейти к последнему сообщению

В этой теме нет новых непрочитанных сообщений. Скачать торрент 47 ронинов / 47 Ronin (2013) Blu-Ray Remux 1080p | Чистый звук

в форуме BD-Remux, Размер: 30.27 ГБ, Здоровье: 0%

Anonymous

0
0|0

261
1

22 мар 2014, 20:52

Anonymous Перейти к последнему сообщению



Сейчас этот форум просматривают: нет зарегистрированных пользователей и гости: 2


Вы не можете начинать темы
Вы не можете отвечать на сообщения
Вы не можете редактировать свои сообщения
Вы не можете удалять свои сообщения
Вы не можете добавлять вложения

Перейти:  

!ВНИМАНИЕ!
 Ресурс не предоставляет электронные версии произведений, а занимается лишь коллекционированием и каталогизацией ссылок, присылаемых и публикуемых на форуме нашими читателями. Если вы являетесь правообладателем какого-либо представленного материала и не желаете чтобы ссылка на него находилась в нашем каталоге, свяжитесь с нами и мы незамедлительно удалим её. Файлы для обмена на трекере предоставлены пользователями сайта, и администрация не несёт ответственности за их содержание. Просьба не заливать файлы, защищенные авторскими правами, а также файлы нелегального содержания!