На всех торрентах на трекере установлена скидка на скачивание в размере 100 процентов(а).
 Возможность скачивания торрента НЕ зависит от ограничений при низком ратио, низком аплоаде, требуемом ратио или требуемом аплоаде.


Начать новую тему Ответить на тему
Статистика раздачи
Размер: 32.59 ГБ | Добавлен: 26 апр 2013, 22:23 | Скачали: 0
Сидеров: 0  [0 байт/сек]    Личеров: 0  [0 байт/сек]
Пред. тема | След. тема 

Автор
Сообщение

СообщениеДобавлено: 26 апр 2013, 22:23 

Дракула 2000 / Dracula 2000 (2000) BDRemux

Русское название: Дракула 2000
Оригинальное название: Dracula 2000
Производство: Dimension Films, Wes Craven Films / США
Год выпуска: 2000
Жанр: Ужасы, мистика
Опиcание фильма:
Банда воров, оснащенных по последнему слову техники, проникает в хранилище известного лондонского антиквара Ван Хелсинга. Прихватив добычу, они скрываются из страны… Обеспокоенный Ван Хелсинг отправляется по следам грабителей, а за ним его помощник Саймон, заинтригованный тайной антиквара.
Тот, с кем Саймон в итоге сталкивается, превосходит все ожидания! Его могущество безгранично, а деяния — ужасны! Его имя — Дракула. И лишь один человек на Земле знает правду. Но всей правды не знает никто!
Режиссер: Патрик Люссье / Patrick Lussier
Актеpы: Джонни Ли Миллер, Джастин Уодделл, Жерар Батлер, Кристофер Пламмер, Дженнифер Эспозито, Локлин Мунро, Омар Эппс, Шон Патрик Томас, Дэнни Мастерсон, Джери Райан, Коллин Фицпатрик
Продoлжительность: 01:39:02
Пеpевод: 2x Профессиональный (дублированный) R5
Оригинальная аудиодорожка: английский
Язык субтитров: русские, английские
Вид субтитров: Вшитые отключаемые

Видеокодек: MPEG-4 AVC/H.264
Битрейт видео: ~13991 kbps
Размер кадра: 1920x1080p
Качество видео: BDRemux
Аудио 1: Русский AC3 / 2.0 / 48 kHz / 192 kbps / 16 bits | Dub
Аудио 2: Английский AC3 / 5.1 / 48 kHz / 384 kbps / 16 bits | eng DVD
Аудио 3: Английский DTS-HD MA / 2.0 / 48 kHz / 2122 kbps / 24 bits (DTS Core: 2.0 / 48 kHz / 1510 kbps / 24 bits)
General
Complete name : O:\Дракула\Дракула 2000.Blu-Ray.Remux.(1080p).mkv
Format : Matroska
File size : 11.5 GiB
Duration : 1h 39mn
Overall bit rate : 16.7 Mbps
Encoded date : UTC 2013-04-24 15:53:26
Writing application : mkvmerge v5.8.0 ('No Sleep / Pillow') built on Sep 2 2012 15:37:04
Writing library : libebml v1.2.3 + libmatroska v1.3.0

Video
ID : 1
Format : AVC
Format/Info : Advanced Video Codec
Format profile :
Format settings, CABAC : Yes
Format settings, ReFrames : 4 frames
Muxing mode : Container profile=Unknown@0.0
Codec ID : V_MPEG4/ISO/AVC
Duration : 1h 38mn
Width : 1 920 pixels
Height : 1 080 pixels
Display aspect ratio : 16:9
Frame rate : 29.970 fps
Standard : NTSC
Resolution : 8 bits
Colorimetry : 4:2:0
Scan type : Interlaced

Audio #1
ID : 2
Format : AC-3
Format/Info : Audio Coding 3
Codec ID : A_AC3
Duration : 1h 39mn
Bit rate mode : Constant
Bit rate : 192 Kbps
Channel(s) : 2 channels
Channel positions : L R
Sampling rate : 48.0 KHz
Stream size : 136 MiB (1%)
Title : Dub, R5
Language : Russian

Audio #2
ID : 3
Format : AC-3
Format/Info : Audio Coding 3
Codec ID : A_AC3
Duration : 1h 39mn
Bit rate mode : Constant
Bit rate : 384 Kbps
Channel(s) : 6 channels
Channel positions : Front: L C R, Surround: L R, LFE
Sampling rate : 48.0 KHz
Stream size : 272 MiB (2%)
Title : Eng c rus DVD

Audio #3
ID : 4
Format : DTS
Format/Info : Digital Theater Systems
Format profile : MA
Codec ID : A_DTS
Duration : 1h 39mn
Bit rate mode : Variable
Channel(s) : 2 channels
Channel positions : Front: L, R
Sampling rate : 48.0 KHz
Resolution : 24 bits
Title : Eng c Bluray

Text #1
ID : 5
Format : UTF-8
Codec ID : S_TEXT/UTF8
Codec ID/Info : UTF-8 Plain Text
Language : Russian

Text #2
ID : 6
Format : UTF-8
Codec ID : S_TEXT/UTF8
Codec ID/Info : UTF-8 Plain Text

Menu
00:00:00.000 : :Chapter 01
00:05:33.166 : :Chapter 02
00:10:55.254 : :Chapter 03
00:16:30.489 : :Chapter 04
00:20:47.646 : :Chapter 05
00:24:56.962 : :Chapter 06
00:28:48.960 : :Chapter 07
00:34:42.647 : :Chapter 08
00:37:39.023 : :Chapter 09
00:44:32.936 : :Chapter 10
00:50:45.042 : :Chapter 11
00:58:09.953 : :Chapter 12
01:10:03.899 : :Chapter 13
01:17:44.326 : :Chapter 14
01:22:53.902 : :Chapter 15




Дракула 2: Вознесение / Dracula II: Ascension (2003) BDRemux

#777Русское название: Дракула 2: Вознесение
Оригинальное название: Dracula II: Ascension
Производство: Castel Film Romania, Neo Art & Logic / США, Румыния
Год выпуска: 2003
Жанр: Ужасы
Опиcание фильма:
История о группе студентов-медиков, которые случайно наталкиваются на тело самого печально известного вампира. Когда появляется таинственный незнакомец и предлагает им 300 миллионов долларов за то, чтобы выставить его кровь на аукцион, они едва ли могут отказаться от такого предложения.
Соблазн богатства вступает в противоречие с невообразимым ужасом… Они еще не знают, что окажутся безжалостно преследуемыми убийцей вампиров из Ватикана.
Режисcер: Патрик Люссье / Patrick Lussier
Актеpы: Джейсон Скотт Ли, Дженифер Кролл, Крэйг Шеффер, Дайан Нил, Хари Пэйтон, Бранд Родерик, Джейсон Лондон, Крис Хантер, Том Кэйн, Джон Лайт
Пpoдолжительность: 01:24:53
Пеpевод: 2x Профессиональный (многоголосый закадровый) R5
Оригинальная аудиодорожка: английский
Язык субтитров: русские, английские
Вид субтитров: Вшитые отключаемые

Видеокодек: MPEG-4 AVC/H.264
Битрейт видео: ~13992 kbps
Размер кадра: 1920x1080p
Качество видео: BDRemux
Аудио 1: Русский AC3 / 5.1 / 48 kHz / 448 kbps / 16 bits | MVO, R5
Аудио 2: Английский AC3 / 5.1 / 48 kHz / 448 kbps / 16 bits | eng DVD
Аудио 3: Английский DTS-HD MA 2.0 / 48 kHz / 1709 kbps / 24 bits (DTS Core: 2.0 / 48 kHz / 768 kbps / 24 bits)
General
Complete name : O:\Дракула\Дракула 2.Вознесение.2003.Blu-Ray.Remux.(1080p).mkv
Format : Matroska
File size : 9.84 GiB
Duration : 1h 24mn
Overall bit rate : 16.6 Mbps
Encoded date : UTC 2013-04-24 10:05:16
Writing application : mkvmerge v5.8.0 ('No Sleep / Pillow') built on Sep 2 2012 15:37:04
Writing library : libebml v1.2.3 + libmatroska v1.3.0

Video
ID : 1
Format : AVC
Format/Info : Advanced Video Codec
Format profile :
Format settings, CABAC : Yes
Format settings, ReFrames : 4 frames
Muxing mode : Container profile=Unknown@0.0
Codec ID : V_MPEG4/ISO/AVC
Duration : 1h 24mn
Width : 1 920 pixels
Height : 1 080 pixels
Display aspect ratio : 16:9
Frame rate : 23.976 fps
Standard : NTSC
Resolution : 8 bits
Colorimetry : 4:2:0
Scan type : Progressive

Audio #1
ID : 2
Format : AC-3
Format/Info : Audio Coding 3
Codec ID : A_AC3
Duration : 1h 24mn
Bit rate mode : Constant
Bit rate : 448 Kbps
Channel(s) : 6 channels
Channel positions : Front: L C R, Surround: L R, LFE
Sampling rate : 48.0 KHz
Stream size : 272 MiB (3%)
Title : MVO, R5
Language : Russian

Audio #2
ID : 3
Format : AC-3
Format/Info : Audio Coding 3
Codec ID : A_AC3
Duration : 1h 24mn
Bit rate mode : Constant
Bit rate : 448 Kbps
Channel(s) : 6 channels
Channel positions : Front: L C R, Surround: L R, LFE
Sampling rate : 48.0 KHz
Stream size : 272 MiB (3%)
Title : Eng c rus DVD

Audio #3
ID : 4
Format : DTS
Format/Info : Digital Theater Systems
Format profile : MA
Codec ID : A_DTS
Duration : 1h 24mn
Bit rate mode : Variable
Channel(s) : 2 channels
Channel positions : Front: L, R
Sampling rate : 48.0 KHz
Resolution : 24 bits
Title : Eng c Bluray

Text #1
ID : 5
Format : UTF-8
Codec ID : S_TEXT/UTF8
Codec ID/Info : UTF-8 Plain Text
Language : Russian

Text #2
ID : 6
Format : UTF-8
Codec ID : S_TEXT/UTF8
Codec ID/Info : UTF-8 Plain Text

Menu
00:00:00.000 : :Chapter 01
00:06:21.339 : :Chapter 02
00:12:00.553 : :Chapter 03
00:17:20.748 : :Chapter 04
00:21:56.648 : :Chapter 05
00:27:00.368 : :Chapter 06
00:32:33.910 : :Chapter 07
00:41:29.069 : :Chapter 08
00:46:21.737 : :Chapter 09
00:50:55.052 : :Chapter 10
00:54:35.230 : :Chapter 11
00:59:59.178 : :Chapter 12
01:04:20.273 : :Chapter 13
01:09:38.424 : :Chapter 14
01:15:40.202 : :Chapter 15




Дракула 3: Наследие / Dracula III: Legacy (2005) BDRemux

#777Русское название: Дракула 3: Наследие
Оригинальное название: Dracula III: Legacy
Производство: Castel Film Romania, Dimension Films / США, Румыния
Год выпуска: 2005
Жанр: Ужасы
Опиcание фильма:
Преследование Дракулы приводит охотников на вампиров — отца Уффици и Люка в Румынию. Где они обнаруживают настоящий ад, в котором развернулось ужасающее кровавое пиршество!
Режиcсер: Патрик Люссье / Patrick Lussier
Актеpы: Джейсон Скотт Ли, Стивен Биллингтон, Дайан Нил, Джейсон Лондон, Рутгер Хауэр, Илинка Гойя, Джордж Григоре, Рой Шайдер, Том Кэйн
Пpoдолжительность: 01:30:45
Пеpевод: Профессиональный (многоголосый закадровый) West Video + Профессиональный (двухголосый закадровый) SUPERBIT
Оригинальная аудиодорожка: английский
Язык субтитров: русские, английские
Вид субтитров: Вшитые отключаемые

Видеокодек: MPEG-4 AVC/H.264
Битрейт видео: ~13998 kbps
Размер кадра: 1920x1080p
Качество видео: BDRemux
Аудио 1: Русский AC3 / 2.0 / 48 kHz / 192 kbps / 16 bits | West Video
Аудио 2: Русский DTS / 5.1 / 48 kHz / 755 kbps / 24 bits | SUPERBIT
Аудио 3: Английский DTS-HD MA / 5.1 / 48 kHz / 2730 kbps / 16 bits (DTS Core: 5.1 / 48 kHz / 1510 kbps / 16 bits)
General
Complete name : O:\Дракула\Дракула 3 Наследие.2005.Blu-Ray.Remux.(1080p).mkv
Format : Matroska
File size : 11.2 GiB
Duration : 1h 30mn
Overall bit rate : 17.7 Mbps
Encoded date : UTC 2013-04-24 17:21:12
Writing application : mkvmerge v5.8.0 ('No Sleep / Pillow') built on Sep 2 2012 15:37:04
Writing library : libebml v1.2.3 + libmatroska v1.3.0

Video
ID : 1
Format : AVC
Format/Info : Advanced Video Codec
Format profile :
Format settings, CABAC : Yes
Format settings, ReFrames : 4 frames
Muxing mode : Container profile=Unknown@0.0
Codec ID : V_MPEG4/ISO/AVC
Duration : 1h 30mn
Width : 1 920 pixels
Height : 1 080 pixels
Display aspect ratio : 16:9
Frame rate : 23.976 fps
Resolution : 8 bits
Colorimetry : 4:2:0
Scan type : Progressive
Color primaries : BT.709-5, BT.1361, IEC 61966-2-4, SMPTE RP177
Transfer characteristics : BT.709-5, BT.1361
Matrix coefficients : BT.709-5, BT.1361, IEC 61966-2-4 709, SMPTE RP177

Audio #1
ID : 2
Format : AC-3
Format/Info : Audio Coding 3
Codec ID : A_AC3
Duration : 1h 30mn
Bit rate mode : Constant
Bit rate : 192 Kbps
Channel(s) : 2 channels
Channel positions : L R
Sampling rate : 48.0 KHz
Stream size : 125 MiB (1%)
Title : MVO, West Video
Language : Russian

Audio #2
ID : 3
Format : DTS
Format/Info : Digital Theater Systems
Codec ID : A_DTS
Duration : 1h 30mn
Bit rate mode : Constant
Bit rate : 755 Kbps
Channel(s) : 6 channels
Channel positions : Front: L C R, Surround: L R, LFE
Sampling rate : 48.0 KHz
Resolution : 24 bits
Stream size : 490 MiB (4%)
Title : DVO, SUPERBIT
Language : Russian

Audio #3
ID : 4
Format : DTS
Format/Info : Digital Theater Systems
Format profile : MA
Codec ID : A_DTS
Duration : 1h 30mn
Bit rate mode : Variable
Channel(s) : 6 channels
Channel positions : Front: L C R, Surround: L R, LFE
Sampling rate : 48.0 KHz
Resolution : 16 bits

Text #1
ID : 5
Format : UTF-8
Codec ID : S_TEXT/UTF8
Codec ID/Info : UTF-8 Plain Text
Language : Russian

Text #2
ID : 6
Format : UTF-8
Codec ID : S_TEXT/UTF8
Codec ID/Info : UTF-8 Plain Text
Title : SDH

Menu
00:00:00.000 : :Chapter 01
00:07:27.029 : :Chapter 02
00:13:32.770 : :Chapter 03
00:18:45.290 : :Chapter 04
00:24:20.041 : :Chapter 05
00:30:55.812 : :Chapter 06
00:37:31.207 : :Chapter 07
00:42:02.728 : :Chapter 08
00:48:14.850 : :Chapter 09
00:55:03.508 : :Chapter 10
01:00:39.594 : :Chapter 11
01:04:28.072 : :Chapter 12
01:08:21.514 : :Chapter 13
01:14:52.321 : :Chapter 14
01:21:23.086 : :Chapter 15 Жанр: Ужасы, мистика
Режиссер: Патрик Люссье
Актеры: Джейсон Скотт Ли, Дженифер Кролл, Крэйг Шеффер, Дайан Нил, Хари Пэйтон, Бранд Родерик, Джейсон Лондон, Крис Хантер, Том Кэйн, Джон Лайт
Перевод: Дублированный, многоголосый закадровый, двухголосый закадровый.
Язык субтитров: русский, английский
Продолжительность: 01:39:02 | 01:24:53 | 01:30:45
Описание : Дракула — это совершенно новая интерпретация леденящих кровь легенд о графе-кровопийце.

загрузка...
Правила, инструкции, FAQ!!!
Торрент  Добавлен [26 апр 2013, 22:23] Скачать торрент
Скачать торрент
[ Размер 163.91 КБ / Просмотров 9 ]

Статус  
 
Размер  32.59 ГБ
Приватный: Нет (DHT включён)
.torrent скачан  0
Как залить торрент? | Как скачать Torrent? | Как смотреть и слушать онлайн?  


     Отправить личное сообщение
   
Страница 1 из 1
Показать сообщения за:  Поле сортировки  
Начать новую тему Ответить на тему

   Похожие торренты   Автор   Ответы   Просмотры   Последнее сообщение 
В этой теме нет новых непрочитанных сообщений. Скачать торрент Проверен [VIDEO] Дракула 2000 / Dracula 2000 (Патрик Люссье / Patrick Lussier) [2000, ужасы, фэнтези, боевик, триллер, HDRip] [MP4, 960x]

в форуме Видео для смартфонов и КПК, Размер: 1.05 ГБ, Здоровье: 100%

Anonymous

0
2|1

317
0

02 авг 2014, 16:53

Anonymous Перейти к последнему сообщению

В этой теме нет новых непрочитанных сообщений. Скачать торрент Проверен Дракула / Dracula Untold (2014) BDRip 1080p | Лицензия

в форуме 720p | 1080p, Размер: 7.16 ГБ, Здоровье: 100%

Гость

0
273|190

325
265

25 янв 2015, 20:31

Гость Перейти к последнему сообщению

В этой теме нет новых непрочитанных сообщений. Скачать торрент Проверен Дракула 3D / Dracula (2012) BDRip 1080p от Ash61 | 3D-Video | halfOU | Лицензия

в форуме HD-Video в 3D, Размер: 10.74 ГБ, Здоровье: 84%

Гость

0
123|145

277
131

31 май 2015, 22:19

Гость Перейти к последнему сообщению

В этой теме нет новых непрочитанных сообщений. Скачать торрент Проверен Дракула / Dracula Untold (2014) HDRip | Лицензия

в форуме Ужасы, Размер: 1.45 ГБ, Здоровье: 100%

Гость

0
806|24

364
1001

25 янв 2015, 20:27

Гость Перейти к последнему сообщению

В этой теме нет новых непрочитанных сообщений. Дракула / Dracula Untold (2014) WEBRip | Чистый звук

в форуме Новинки кино, Размер: 1.37 ГБ, Здоровье: 100%

Anonymous

0
588|0

1300
5

10 ноя 2014, 21:00

Anonymous Перейти к последнему сообщению



Сейчас этот форум просматривают: нет зарегистрированных пользователей и гости: 1


Вы не можете начинать темы
Вы не можете отвечать на сообщения
Вы не можете редактировать свои сообщения
Вы не можете удалять свои сообщения
Вы не можете добавлять вложения

Перейти:  

!ВНИМАНИЕ!
 Ресурс не предоставляет электронные версии произведений, а занимается лишь коллекционированием и каталогизацией ссылок, присылаемых и публикуемых на форуме нашими читателями. Если вы являетесь правообладателем какого-либо представленного материала и не желаете чтобы ссылка на него находилась в нашем каталоге, свяжитесь с нами и мы незамедлительно удалим её. Файлы для обмена на трекере предоставлены пользователями сайта, и администрация не несёт ответственности за их содержание. Просьба не заливать файлы, защищенные авторскими правами, а также файлы нелегального содержания!