На всех торрентах на трекере установлена скидка на скачивание в размере 100 процентов(а).
 Возможность скачивания торрента НЕ зависит от ограничений при низком ратио, низком аплоаде, требуемом ратио или требуемом аплоаде.


Начать новую тему Ответить на тему
Статистика раздачи
Размер: 33.95 ГБ | Добавлен: 09 ноя 2014, 00:11 | Скачали: 2
Сидеров: 0  [0 байт/сек]    Личеров: 3  [0 байт/сек]
Пред. тема | След. тема 

Автор
Сообщение

СообщениеДобавлено: 09 ноя 2014, 00:11 

В осаде / Захват / Under Siege (1992) [1080p] BDRemux

Год выпуска: 1992
Производство: США, Франция
Жанр: Боевик, Драма, Триллер

Описание фильма: Террористы — бывшая элита коммандос — под видом сопровождения рок-группы, которая должна выступить перед военными моряками, пробираются на корабль с ядерным оружием. Расправившись с основной частью команды, они пытаются шантажировать правительство США.
Все для захватчиков судна складывалось благополучно до тех пор, пока они не решили изолировать повара — бывшего морского пехотинца. Кок не мог стерпеть такого издевательства: он практически в одиночку хоронит планы подонков один за другим.

Режиссер: Эндрю Дэвис / Andrew Davis
Актеры: Стивен Сигал , Томми Ли Джонс , Гэри Бьюзи , Эрика Элениак , Колм Мини , Патрик О’Нил , Энди Романо , Ник Манкузо , Дэмиан Чапа , Трой Эванс

Продолжительность: 01:42:31
Перевод: Многоголосый закадровый, одноголосый закадровый
Язык субтитров: русский, английский

Дата мировой премьеры: 9 октября 1992
Качество видео: BDRemux
Видео: VC-1 Video / 1920x1080p / 16:9 / 23,976 fps / ~22.1 Mbps / Advanced Profile 3
Аудио 1: Russian: 48 kHz, AC3, 3/2 (L,C,R,l,r) + LFE ch, ~448.00 kbps avg |MVO-Гемини фильм|
Аудио 2: Russian: 48 kHz, AC3, 3/2 (L,C,R,l,r) + LFE ch, ~448.00 kbps avg |MVO- НТВ|
Аудио 3: Russian: 48 kHz, AC3, 3/2 (L,C,R,l,r) + LFE ch, ~640.00 kbps avg |AVO-Гаврилов|
Аудио 4: English: 48 kHz, AC3, 3/2 (L,C,R,l,r) + LFE ch, ~640.00 kbps avg |Original|

Доп. информация по дороге №2: дорожка собрана F0X1986

F0X1986 писал(а):
Цитата:
Цитата:
Дорожка замастырена путём выделения чистых (по возможности) голосов из нтв-шной моно-дороги и наложения оной на центр оригинальной.
Общее
Уникальный идентификатор : 246384762232308188841283058067737211362 (0xB95BFAA9136CC41889C3CA0AF34CF1E2)
Полное имя : \В.ОСАДЕ_ДИЛОГИЯ.BDREMUX\В.осаде_ Under.Siege.1992.BDRemux.mkv
Формат : Matroska
Версия формата : Version 4 / Version 2
Размер файла : 17,4 Гбайт
Продолжительность : 1 ч. 42 м.
Общий поток : 24,3 Мбит/сек
Название фильма : В.осаде_ Under.Siege.1992.BDRemux
Дата кодирования : UTC 2010-02-22 21:41:31
Программа кодирования : mkvmerge v5.8.0 ('No Sleep / Pillow') built on Nov 13 2012 19:43:22
Библиотека кодирования : libebml v1.3.0 + libmatroska v1.4.0

Видео
Идентификатор : 1
Формат : VC-1
Профиль формата : Advanced@L3
Идентификатор кодека : V_MS/VFW/FOURCC / WVC1
Идентификатор кодека/Подсказка : Microsoft
Продолжительность : 1 ч. 42 м.
Битрейт : 21,2 Мбит/сек
Ширина : 1920 пикселей
Высота : 1080 пикселей
Соотношение сторон : 16:9
Режим частоты кадров : Постоянный
Частота кадров : 23,976 кадра/сек
Цветовое пространство : YUV
Субдискретизация насыщенности : 4:2:0
Битовая глубина : 8 бит
Тип развёртки : Прогрессивная
Метод сжатия : С потерями
Бит/(Пиксели*Кадры) : 0.427
Размер потока : 15,2 Гбайт (87%)
Заголовок : В.осаде_ Under.Siege.1992.BDRemux
Язык : English
Default : Да
Forced : Нет

Аудио #1
Идентификатор : 2
Формат : AC-3
Формат/Информация : Audio Coding 3
Расширение режима : CM (complete main)
Параметр Endianness формата : Big
Идентификатор кодека : A_AC3
Продолжительность : 1 ч. 42 м.
Вид битрейта : Постоянный
Битрейт : 448 Кбит/сек
Каналы : 6 каналов
Расположение каналов : Front: L C R, Side: L R, LFE
Частота : 48,0 КГц
Битовая глубина : 16 бит
Метод сжатия : С потерями
Размер потока : 329 Мбайт (2%)
Заголовок : AC3 5.1 @ 448 kbps - MVO, Gemini
Язык : Russian
Default : Да
Forced : Нет

Аудио #2
Идентификатор : 3
Формат : AC-3
Формат/Информация : Audio Coding 3
Расширение режима : CM (complete main)
Параметр Endianness формата : Big
Идентификатор кодека : A_AC3
Продолжительность : 1 ч. 42 м.
Вид битрейта : Постоянный
Битрейт : 448 Кбит/сек
Каналы : 6 каналов
Расположение каналов : Front: L C R, Side: L R, LFE
Частота : 48,0 КГц
Битовая глубина : 16 бит
Метод сжатия : С потерями
Размер потока : 329 Мбайт (2%)
Заголовок : AC3 5.1 @ 448 kbps - MVO, NTV (custom)
Язык : Russian
Default : Нет
Forced : Нет

Аудио #3
Идентификатор : 4
Формат : AC-3
Формат/Информация : Audio Coding 3
Расширение режима : CM (complete main)
Параметр Endianness формата : Big
Идентификатор кодека : A_AC3
Продолжительность : 1 ч. 42 м.
Вид битрейта : Постоянный
Битрейт : 448 Кбит/сек
Каналы : 6 каналов
Расположение каналов : Front: L C R, Side: L R, LFE
Частота : 48,0 КГц
Битовая глубина : 16 бит
Метод сжатия : С потерями
Размер потока : 329 Мбайт (2%)
Заголовок : AC3 5.1 @ 448 kbps - DVO, Tivionika
Язык : Russian
Default : Нет
Forced : Нет

Аудио #4
Идентификатор : 5
Формат : AC-3
Формат/Информация : Audio Coding 3
Расширение режима : CM (complete main)
Параметр Endianness формата : Big
Идентификатор кодека : A_AC3
Продолжительность : 1 ч. 42 м.
Вид битрейта : Постоянный
Битрейт : 640 Кбит/сек
Каналы : 6 каналов
Расположение каналов : Front: L C R, Side: L R, LFE
Частота : 48,0 КГц
Битовая глубина : 16 бит
Метод сжатия : С потерями
Размер потока : 469 Мбайт (3%)
Заголовок : AC3 5.1 @ 640 kbps - VO, Gavrilov
Язык : Russian
Default : Нет
Forced : Нет

Аудио #5
Идентификатор : 6
Формат : AC-3
Формат/Информация : Audio Coding 3
Расширение режима : CM (complete main)
Параметр Endianness формата : Big
Идентификатор кодека : A_AC3
Продолжительность : 1 ч. 42 м.
Вид битрейта : Постоянный
Битрейт : 640 Кбит/сек
Каналы : 6 каналов
Расположение каналов : Front: L C R, Side: L R, LFE
Частота : 48,0 КГц
Битовая глубина : 16 бит
Метод сжатия : С потерями
Размер потока : 469 Мбайт (3%)
Заголовок : AC3 5.1 @ 640 kbps - Оригинал
Язык : English
Default : Нет
Forced : Нет

Текст #1
Идентификатор : 7
Формат : UTF-8
Идентификатор кодека : S_TEXT/UTF8
Идентификатор кодека/Информация : UTF-8 Plain Text
Язык : Russian
Default : Нет
Forced : Нет

Текст #2
Идентификатор : 8
Формат : ASS
Идентификатор кодека : S_TEXT/ASS
Идентификатор кодека/Информация : Advanced Sub Station Alpha
Метод сжатия : Без потерь
Заголовок : Оригинал
Язык : English
Default : Нет
Forced : Нет

Меню
00:00:00.000 : en:Credits/Ceremony
00:05:53.394 : en:Prepare a Surprise
00:10:23.372 : en:Strike an Officer
00:13:01.906 : en:New Arrivals
00:17:19.329 : en:Make Naval History
00:20:02.201 : en:The Siege Begins
00:24:16.329 : en:Need Evaluation
00:25:13.762 : en:In Control
00:29:40.612 : en:Mess in the Galley
00:33:30.258 : en:Flying Target
00:36:17.800 : en:Chat with Pentagon
00:42:25.501 : en:Out of the Cake
00:45:13.544 : en:Strannix Specialty
00:48:57.643 : en:Not Work of a Cook
00:50:22.602 : en:The Odds; Profile
00:52:34.985 : en:Jordan's Rules
00:58:11.446 : en:Saboteur on Deck
01:02:13.938 : en:Crew on Peril
01:06:43.416 : en:Assault Forces
01:12:01.900 : en:Not Quite Control
01:15:01.413 : en:Offloading Begins
01:19:58.668 : en:Gunning for Sub
01:26:43.990 : en:Missiles Launched
01:29:05.840 : en:All Hands Off Deck
01:31:24.896 : en:Puppets
01:34:41.967 : en:Tomahawk in Sights
01:35:17.336 : en:By the Numbers
01:37:22.127 : en:Casey's Move
01:38:58.015 : en:End Credits
Это единственный фильм в карьере Стивена Сигала, получивший сертификат свежего на популярном сайте Rotten Tomatoes (не менее 60% положительных рецензий критиков). Это также единственный фильм с участием актёра, получивший номинацию на Оскар.
В качестве легендарного линкора «Миссури» во время съёмок фильма использовался принадлежащий к тому же классу линкор «Алабама». С 1964 года он стоит на вечном причале как музейный корабль в Мобиле, штат Алабама. Одной из самых больших сложностей для съёмочной группы было создать иллюзию движущегося корабля в открытом море. С этой целью была создана 35-метровая завешенная чёрной тканью баржа, которая при необходимости закрывала от попадания в кадр огни и строения большого города.
Этот же номер журнала Playboy появлялся в фильме «Один дома» (1990).
Девять актёров, участвовавших в фильме, перешли вместе с режиссёром Эндрю Дэвисом в его следующий проект, которым стал триллер «Беглец» (1993).
Для британского релиза несколько сцен были слегка урезаны и перемонтированы ради того, что бы получить боле мягкий возрастной рейтинг «15».
Адмирал Бейтс говорит в фильме, что Кейт Райбэк возглавлял команду спецназа в миссии в Панаме и единственный из группы остался в живых. В реальности во время этой миссии 4 человека погибли и 8 были ранены.
Закадровый текст в начале фильма читает Дон Марш, бывший ведущий новостей на телеканале KTVI/KDNL.
Харрисон Форд посмотрел этот фильм, решая для себя, стоит ли принимать предложенную ему главную роль в «Беглеце». Актёр остался настолько впечатлён работой режиссёра Эндрю Дэвиса, что тут же принял предложение.
Эрика Элениак, которая в фильме играет «Мисс Июль 1989» на самом деле была удостоена звания Playmate of the Month июль 1989 журнала Playboy.
Подводная лодка USS Drum исполнила роль северокорейской подлодки.
Скриншоты:





В осаде 2: Темная территория / Under Siege 2: Dark Territory (1995) BDRemux

Год выпуска: 1995
Производство: США
Жанр: Боевик, Триллер
Перевод: Многоголосый закадровый, двухголосый закадровый
Язык субтитров: Русский, Английский

Режиссер: Джеф Мерфи
Актеры: Стивен Сигал, Эрик Богосян, Эверет МакГилл, Кэтрин Хайгл, Моррис Честнат, Питер Грин, Пэтрик Килпэтрик, Скотт Сауэрс, Афифи Алауи, Энди Романо

Описание фильма: Террористы захватывают поезд для того, чтобы развернуть на нем передвижной пункт управления засекреченным военным спутником США, на котором установлено оружие огромной разрушительной силы, и грозят взрывом на Восточном побережье Америки.
Случайно оказавшийся среди пассажиров морской пехотинец Кейси Рэйбек не стерпел издевательств преступников...
Продолжительность: 01:39:39

Дата мировой премьеры: 14 июля 1995
Качество видео: BDRemux
Видео: VC-1 Video / 21631 kbps / 1080p / 23.976 fps / 16:9 / Advanced Profile 3
Аудио#1: Russian: 48 kHz, AC3, 3/2 (L,C,R,l,r) + LFE ch, ~640.00 kbps avg |MVO|
Аудио#2: Russian: 48 kHz, AC3, 3/2 (L,C,R,l,r) + LFE ch, ~448.00 kbps avg |DVO - ОРТ|
Аудио#3: Ukrainian: 48 kHz, AC3, 3/2 (L,C,R,l,r) + LFE ch, ~384.00 kbps avg |MVO - ICTV|
Аудио#4: English: 48 kHz, AC3, 3/2 (L,C,R,l,r) + LFE ch, ~640.00 kbps avg

Доп. информация по дороге №2: дорожка собрана SnDamil

SnDamil писал(а):
Цитата:
Цитата:
Дорожка сделана на основе английской дороги. Из записи с ТВ были выделены фрагменты с переводом, а затем наложены на центр английской дорожки.
Общее
Уникальный идентификатор : 239355760425441184729195452821515864778 (0xB4123E1D6CDC2DE0ABD487D16C910ACA)
Полное имя :\В.ОСАДЕ_ДИЛОГИЯ.BDREMUX\В.осаде.2.Темная.территория_Under.Siege.2. Dark.Territory.1995.BDRemux.mkv
Формат : Matroska
Версия формата : Version 4 / Version 2
Размер файла : 16,5 Гбайт
Продолжительность : 1 ч. 39 м.
Общий поток : 23,7 Мбит/сек
Название фильма : В.осаде.2.Темная.территория_Under.Siege.2. Dark.Territory.1995.BDRemux
Дата кодирования : UTC 2010-02-22 21:41:31
Программа кодирования : mkvmerge v5.8.0 ('No Sleep / Pillow') built on Nov 13 2012 19:43:22
Библиотека кодирования : libebml v1.3.0 + libmatroska v1.4.0

Видео
Идентификатор : 1
Формат : VC-1
Профиль формата : Advanced@L3
Идентификатор кодека : V_MS/VFW/FOURCC / WVC1
Идентификатор кодека/Подсказка : Microsoft
Продолжительность : 1 ч. 39 м.
Битрейт : 21,2 Мбит/сек
Ширина : 1920 пикселей
Высота : 1080 пикселей
Соотношение сторон : 16:9
Режим частоты кадров : Постоянный
Частота кадров : 23,976 кадра/сек
Цветовое пространство : YUV
Субдискретизация насыщенности : 4:2:0
Битовая глубина : 8 бит
Тип развёртки : Прогрессивная
Метод сжатия : С потерями
Бит/(Пиксели*Кадры) : 0.426
Размер потока : 14,7 Гбайт (89%)
Заголовок : В.осаде.2.Темная.территория_Under.Siege.2. Dark.Territory.1995.BDRemux
Язык : English
Default : Нет
Forced : Нет

Аудио #1
Идентификатор : 2
Формат : AC-3
Формат/Информация : Audio Coding 3
Расширение режима : CM (complete main)
Параметр Endianness формата : Big
Идентификатор кодека : A_AC3
Продолжительность : 1 ч. 39 м.
Вид битрейта : Постоянный
Битрейт : 640 Кбит/сек
Каналы : 6 каналов
Расположение каналов : Front: L C R, Side: L R, LFE
Частота : 48,0 КГц
Битовая глубина : 16 бит
Метод сжатия : С потерями
Размер потока : 456 Мбайт (3%)
Заголовок : AC3 5.1 @ 640 kbps - MVO
Язык : Russian
Default : Да
Forced : Нет

Аудио #2
Идентификатор : 3
Формат : AC-3
Формат/Информация : Audio Coding 3
Расширение режима : CM (complete main)
Параметр Endianness формата : Big
Идентификатор кодека : A_AC3
Продолжительность : 1 ч. 39 м.
Вид битрейта : Постоянный
Битрейт : 448 Кбит/сек
Каналы : 6 каналов
Расположение каналов : Front: L C R, Side: L R, LFE
Частота : 48,0 КГц
Битовая глубина : 16 бит
Метод сжатия : С потерями
Размер потока : 319 Мбайт (2%)
Заголовок : AC3 5.1 @ 448 kbps - DVO, ORT
Язык : Russian
Default : Нет
Forced : Нет

Аудио #3
Идентификатор : 4
Формат : AC-3
Формат/Информация : Audio Coding 3
Расширение режима : CM (complete main)
Параметр Endianness формата : Big
Идентификатор кодека : A_AC3
Продолжительность : 1 ч. 39 м.
Вид битрейта : Постоянный
Битрейт : 384 Кбит/сек
Каналы : 6 каналов
Расположение каналов : Front: L C R, Side: L R, LFE
Частота : 48,0 КГц
Битовая глубина : 16 бит
Метод сжатия : С потерями
Размер потока : 274 Мбайт (2%)
Заголовок : AC3 5.1 @ 384 kbps - MVO, ICTV
Язык : Ukrainian
Default : Нет
Forced : Нет

Аудио #4
Идентификатор : 5
Формат : AC-3
Формат/Информация : Audio Coding 3
Расширение режима : CM (complete main)
Параметр Endianness формата : Big
Идентификатор кодека : A_AC3
Продолжительность : 1 ч. 39 м.
Вид битрейта : Постоянный
Битрейт : 640 Кбит/сек
Каналы : 6 каналов
Расположение каналов : Front: L C R, Side: L R, LFE
Частота : 48,0 КГц
Битовая глубина : 16 бит
Метод сжатия : С потерями
Размер потока : 456 Мбайт (3%)
Заголовок : AC3 5.1 @ 640 kbps - Оригинал
Язык : English
Default : Нет
Forced : Нет

Текст #1
Идентификатор : 6
Формат : UTF-8
Идентификатор кодека : S_TEXT/UTF8
Идентификатор кодека/Информация : UTF-8 Plain Text
Язык : Russian
Default : Нет
Forced : Нет

Текст #2
Идентификатор : 7
Формат : UTF-8
Идентификатор кодека : S_TEXT/UTF8
Идентификатор кодека/Информация : UTF-8 Plain Text
Язык : English
Default : Нет
Forced : Нет

Меню
00:00:00.000 : en:Damn thing works
00:06:08.034 : en:Not trained
00:10:12.236 : en:Those who wait
00:11:41.826 : en:Hostile takeover
00:13:26.305 : en:Strong stuff
00:15:46.320 : en:Exercise restraint
00:18:26.939 : en:Loco secure
00:20:38.445 : en:Dining car trouble
00:22:50.994 : en:Captor speaking
00:25:06.796 : en:Persuasion
00:27:42.869 : en:View from the roof
00:31:07.073 : en:A demonstration
00:37:55.356 : en:Briefing Bates
00:40:26.799 : en:Boom!
00:44:07.436 : en:Still smarter
00:47:53.537 : en:Under fire
00:53:46.514 : en:Terrorist profile
00:55:01.172 : en:Bait for the best
00:58:54.197 : en:Making a bomb
01:02:32.832 : en:Double play
01:04:04.048 : en:Putting on brakes
01:08:57.383 : en:Countdown
01:12:01.191 : en:Board moving train
01:14:14.408 : en:To the rescue
01:17:52.417 : en:Target shooting
01:22:09.299 : en:How to fly
01:25:11.648 : en:Hand to hand
01:32:07.063 : en:A high-tech bullet
01:33:35.818 : en:Head-on!
01:34:45.179 : en:Last of a lunatic
01:36:26.781 : en:Safe
В фильме появляется тепловоз GP7 N 1801, принадлежащий на момент съёмок Missouri Central Railroad. За 10 лет до выхода данного фильма, этот тепловоз (тогда он принадлежал Alaska Railroad) снялся в другом известном железнодорожном фильме — «Поезд-беглец» Андрея Кончаловского. В настоящее время этот тепловоз работает под обозначением RRC-1800.
[center]Скриншоты:



загрузка...
Правила, инструкции, FAQ!!!
Торрент  Добавлен [09 ноя 2014, 00:11] Скачать торрент
Скачать торрент
[ Размер 170.8 КБ / Просмотров 25 ]

Статус
Проверен 
 
Размер  33.95 ГБ
Приватный: Нет (DHT включён)
.torrent скачан  2
Как залить торрент? | Как скачать Torrent? | Как смотреть и слушать онлайн?  


     Отправить личное сообщение
   
Страница 1 из 1
Показать сообщения за:  Поле сортировки  
Начать новую тему Ответить на тему

   Похожие торренты   Автор   Ответы   Просмотры   Последнее сообщение 
В этой теме нет новых непрочитанных сообщений. Скачать торрент В осаде 2: Темная территория / Захват 2: Темная территория / Under Siege 2: Dark Territory (1995) BDRip

в форуме Боевики, Размер: 2.58 ГБ, Здоровье: 0%

Anonymous

0
0|0

51
0

30 дек 2013, 12:38

Anonymous Перейти к последнему сообщению

В этой теме нет новых непрочитанных сообщений. Скачать торрент Проверен В осаде 2: Темная территория / Under Siege 2: Dark Territory (1995) BDRip [576p] iPad

в форуме Фильмы для iPod, iPhone, iPad, Размер: 2.28 ГБ, Здоровье: 100%

Anonymous

0
1|1

74
0

13 сен 2015, 01:08

Anonymous Перейти к последнему сообщению

В этой теме нет новых непрочитанных сообщений. Скачать торрент В осаде / Захват / Under Siege (1992) BDRip

в форуме Боевики, Размер: 2.82 ГБ, Здоровье: 0%

Anonymous

0
0|0

59
0

30 дек 2013, 12:46

Anonymous Перейти к последнему сообщению

В этой теме нет новых непрочитанных сообщений. Скачать торрент Проверен В осаде / Under Siege (1992) BDRip [576p] iPad

в форуме Фильмы для iPod, iPhone, iPad, Размер: 2.63 ГБ, Здоровье: 100%

Anonymous

0
3|1

61
0

13 сен 2015, 01:06

Anonymous Перейти к последнему сообщению

В этой теме нет новых непрочитанных сообщений. Скачать торрент Проверен В осаде / Under Siege (Эндрю Дэвис / Andrew Davis) [1992 г., боевик, триллер, 480p] MVO, DVO, AVO Гаврилов, Original, sub(rus,eng)

в форуме Фильмы для iPod, iPhone, iPad, Размер: 1.68 ГБ, Здоровье: 100%

Гость

0
2|1

24
0

11 май 2015, 01:41

Гость Перейти к последнему сообщению



Сейчас этот форум просматривают: нет зарегистрированных пользователей и гости: 1


Вы не можете начинать темы
Вы не можете отвечать на сообщения
Вы не можете редактировать свои сообщения
Вы не можете удалять свои сообщения
Вы не можете добавлять вложения

Перейти:  

!ВНИМАНИЕ!
 Ресурс не предоставляет электронные версии произведений, а занимается лишь коллекционированием и каталогизацией ссылок, присылаемых и публикуемых на форуме нашими читателями. Если вы являетесь правообладателем какого-либо представленного материала и не желаете чтобы ссылка на него находилась в нашем каталоге, свяжитесь с нами и мы незамедлительно удалим её. Файлы для обмена на трекере предоставлены пользователями сайта, и администрация не несёт ответственности за их содержание. Просьба не заливать файлы, защищенные авторскими правами, а также файлы нелегального содержания!