На всех торрентах на трекере установлена скидка на скачивание в размере 100 процентов(а).
 Возможность скачивания торрента НЕ зависит от ограничений при низком ратио, низком аплоаде, требуемом ратио или требуемом аплоаде.


Начать новую тему Ответить на тему
Статистика раздачи
Размер: 32.51 ГБ | Добавлен: 16 сен 2014, 11:40 | Скачали: 2
Сидеров: 9  [0 байт/сек]    Личеров: 2  [0 байт/сек]
Пред. тема | След. тема 

Автор
Сообщение

СообщениеДобавлено: 16 сен 2014, 11:40 

Название: На крючке
Оригинальное название: Eagle Eye
Год выхода: 2008
Жанр: Фантастика, боевик, триллер, детектив
Режиссер: Ди Джей Карузо

В ролях: Шайа ЛаБаф, Мишель Монахэн, Билли Боб Торнтон, Розарио Доусон, Майкл Чиклис, Энтони Маки, Итэн Эмбри, Энтони Азизи, Кэмерон Бойс, Линн Коэн

О фильме:
Юный бездельник живет беззаботной жизнью, в отличие от своего брата-близнеца, стремящегося добиться успеха во всех сферах жизни, пока… тот не погибает при загадочных обстоятельствах. В то же время у матери-одиночки Рэйчел крадут ребёнка…



Страна: США, Германия, DreamWorks SKG, Goldcrest Pictures, KMP Film Invest
Продолжительность: 01:57:35
Перевод: Дублированный / Профессиональный многоголосый / Авторский одноголосый (Гаврилов, Сербин) / Украинский

Кодек: H.264
Качество: Blu-Ray Remux 1080p
Видео: MPEG-4 AVC, 29622 Кбит/с, 1920х1080, 23.976 кадр/с
Звук: Русский (AC3, 6 ch, 640 Кбит/с), (DTS-HD MA, 6 ch, 3996 Кбит/с), (AC3, 6 ch, 448 Кбит/с), украинский (AC3, 6 ch, 448 Кбит/с), английский (DTS-HD MA, 6 ch, 4011 Кбит/с)
Субтитры: Русские, английские

Дублированный - (AC3, 6 ch, 640 Кбит/с)
Профессиональный многоголосый - (AC3, 6 ch, 448 Кбит/с)
Авторский одноголосый (Гаврилов) - (DTS-HD MA, 6 ch, 3996 Кбит/с)
Авторский одноголосый (Сербин) - (AC3, 6 ch, 448 Кбит/с)
Украинский - (AC3, 6 ch, 448 Кбит/с)
Английский - (DTS-HD MA, 6 ch, 4011 Кбит/с)

Полное имя : D:Раздачи_DEagle.Eye.2008.BDRemux.1080p.NovaLan.mkv
Формат : Matroska
Версия формата : Version 4 / Version 2
Размер файла : 32,5 Гбайт
Продолжительность : 1 ч. 57 м.
Режим общего битрейта : Переменный
Общий поток : 39,6 Мбит/сек
Название фильма : Eagle Eye 2008 - NovaLan
Дата кодирования : UTC 2014-09-15 22:32:56
Программа кодирования : mkvmerge v7.2.0 ('On Every Street') 64bit built on Sep 13 2014 15:52:10
Библиотека кодирования : libebml v1.3.0 + libmatroska v1.4.1
DURATION : 01:49:37.995000000
NUMBER_OF_FRAMES : 1526
NUMBER_OF_BYTES : 58813
_STATISTICS_WRITING_APP : mkvmerge v7.2.0 ('On Every Street') 64bit built on Sep 13 2014 15:52:10
_STATISTICS_WRITING_DATE_UTC : 2014-09-15 22:32:56
_STATISTICS_TAGS : BPS DURATION NUMBER_OF_FRAMES NUMBER_OF_BYTES

Видео
Идентификатор : 1
Формат : AVC
Формат/Информация : Advanced Video Codec
Профиль формата : High@L4.1
Параметр CABAC формата : Да
Параметр ReFrames формата : 4 кадра
Идентификатор кодека : V_MPEG4/ISO/AVC
Продолжительность : 1 ч. 57 м.
Вид битрейта : Переменный
Битрейт : 33,6 Мбит/сек
Максимальный битрейт : 35,0 Мбит/сек
Ширина : 1920 пикселей
Высота : 1080 пикселей
Соотношение сторон : 16:9
Частота кадров : 23,976 кадра/сек
Цветовое пространство : YUV
Субдискретизация насыщенности : 4:2:0
Битовая глубина : 8 бит
Тип развёртки : Прогрессивная
Бит/(Пиксели*Кадры) : 0.676
Размер потока : 27,6 Гбайт (85%)
Заголовок : Eagle Eye 2008 - NovaLan
Default : Да
Forced : Нет
Основные цвета : BT.709-5, BT.1361, IEC 61966-2-4, SMPTE RP177
Характеристики трансфера : BT.709-5, BT.1361
Коэффициенты матрицы : BT.709-5, BT.1361, IEC 61966-2-4 709, SMPTE RP177

Аудио #1
Идентификатор : 2
Формат : AC-3
Формат/Информация : Audio Coding 3
Расширение режима : CM (complete main)
Параметр Endianness формата : Big
Идентификатор кодека : A_AC3
Продолжительность : 1 ч. 57 м.
Вид битрейта : Постоянный
Битрейт : 640 Кбит/сек
Каналы : 6 каналов
Расположение каналов : Front: L C R, Side: L R, LFE
Частота : 48,0 КГц
Битовая глубина : 16 бит
Метод сжатия : С потерями
Размер потока : 538 Мбайт (2%)
Язык : Russian
Default : Да
Forced : Нет

Аудио #2
Идентификатор : 3
Формат : AC-3
Формат/Информация : Audio Coding 3
Расширение режима : CM (complete main)
Параметр Endianness формата : Big
Идентификатор кодека : A_AC3
Продолжительность : 1 ч. 57 м.
Вид битрейта : Постоянный
Битрейт : 448 Кбит/сек
Каналы : 6 каналов
Расположение каналов : Front: L C R, Side: L R, LFE
Частота : 48,0 КГц
Битовая глубина : 16 бит
Метод сжатия : С потерями
Размер потока : 377 Мбайт (1%)
Язык : Russian
Default : Нет
Forced : Нет

Аудио #3
Идентификатор : 4
Формат : DTS
Формат/Информация : Digital Theater Systems
Профиль формата : MA / Core
Идентификатор кодека : A_DTS
Продолжительность : 1 ч. 57 м.
Вид битрейта : Переменный
Битрейт : 1621 Кбит/сек / 1510 Кбит/сек
Каналы : 6 каналов
Расположение каналов : Front: L C R, Side: L R, LFE
Частота : 48,0 КГц
Битовая глубина : 24 бит
Метод сжатия : Без потерь / Lossy
Язык : Russian
Default : Нет
Forced : Нет

Аудио #4
Идентификатор : 5
Формат : AC-3
Формат/Информация : Audio Coding 3
Расширение режима : CM (complete main)
Параметр Endianness формата : Big
Идентификатор кодека : A_AC3
Продолжительность : 1 ч. 57 м.
Вид битрейта : Постоянный
Битрейт : 448 Кбит/сек
Каналы : 6 каналов
Расположение каналов : Front: L C R, Side: L R, LFE
Частота : 48,0 КГц
Битовая глубина : 16 бит
Метод сжатия : С потерями
Размер потока : 377 Мбайт (1%)
Язык : Russian
Default : Нет
Forced : Нет

Аудио #5
Идентификатор : 6
Формат : AC-3
Формат/Информация : Audio Coding 3
Расширение режима : CM (complete main)
Параметр Endianness формата : Big
Идентификатор кодека : A_AC3
Продолжительность : 1 ч. 57 м.
Вид битрейта : Постоянный
Битрейт : 448 Кбит/сек
Каналы : 6 каналов
Расположение каналов : Front: L C R, Side: L R, LFE
Частота : 48,0 КГц
Битовая глубина : 16 бит
Метод сжатия : С потерями
Размер потока : 377 Мбайт (1%)
Язык : Ukrainian
Default : Нет
Forced : Нет

Аудио #6
Идентификатор : 7
Формат : DTS
Формат/Информация : Digital Theater Systems
Профиль формата : MA / Core
Идентификатор кодека : A_DTS
Продолжительность : 1 ч. 57 м.
Вид битрейта : Переменный
Битрейт : 1561 Кбит/сек / 1510 Кбит/сек
Каналы : 6 каналов
Расположение каналов : Front: L C R, Side: L R, LFE
Частота : 48,0 КГц
Битовая глубина : 24 бит
Метод сжатия : Без потерь / Lossy
Язык : English
Default : Нет
Forced : Нет

Текст #1
Идентификатор : 8
Формат : UTF-8
Идентификатор кодека : S_TEXT/UTF8
Идентификатор кодека/Информация : UTF-8 Plain Text
Язык : Russian
Default : Нет
Forced : Нет

Текст #2
Идентификатор : 9
Формат : UTF-8
Идентификатор кодека : S_TEXT/UTF8
Идентификатор кодека/Информация : UTF-8 Plain Text
Язык : English
Default : Нет
Forced : Нет

Меню
00:00:00.000 : en:Chapter 1
00:05:49.140 : en:Chapter 2
00:10:39.555 : en:Chapter 3
00:16:26.902 : en:Chapter 4
00:19:33.964 : en:Chapter 5
00:23:41.753 : en:Chapter 6
00:26:22.831 : en:Chapter 7
00:31:42.400 : en:Chapter 8
00:38:06.492 : en:Chapter 9
00:43:23.142 : en:Chapter 10
00:46:29.953 : en:Chapter 11
00:52:01.243 : en:Chapter 12
00:56:03.568 : en:Chapter 13
01:00:40.345 : en:Chapter 14
01:04:26.654 : en:Chapter 15
01:09:07.977 : en:Chapter 16
01:15:33.153 : en:Chapter 17
01:20:58.770 : en:Chapter 18
01:25:43.179 : en:Chapter 19
01:32:52.108 : en:Chapter 20
01:39:48.399 : en:Chapter 21
01:44:35.060 : en:Chapter 22
01:48:16.907 : en:Chapter 23
01:50:48.391 : en:Chapter 24

Релиз группы NovaLan
Автор сборки Sergei7721




загрузка...
Правила, инструкции, FAQ!!!
Торрент  Добавлен [16 сен 2014, 11:40] Скачать торрент
Скачать торрент
[ Размер 163.05 КБ / Просмотров 20 ]

Статус
Проверен 
 
Размер  32.51 ГБ
Приватный: Нет (DHT включён)
.torrent скачан  2
Как залить торрент? | Как скачать Torrent? | Как смотреть и слушать онлайн?  


     Отправить личное сообщение
   
Страница 1 из 1
Показать сообщения за:  Поле сортировки  
Начать новую тему Ответить на тему

   Похожие торренты   Автор   Ответы   Просмотры   Последнее сообщение 
В этой теме нет новых непрочитанных сообщений. Скачать торрент На крючке / Eagle Eye (2008) BDRip-AVC

в форуме 720p | 1080p, Размер: 1.46 ГБ, Здоровье: 100%

Anonymous

0
123|6

34
269

27 янв 2014, 10:37

Anonymous Перейти к последнему сообщению

В этой теме нет новых непрочитанных сообщений. Скачать торрент Проверен На крючке / Eagle Eye (2008) BDRip 720p

в форуме 720p | 1080p, Размер: 5.37 ГБ, Здоровье: 100%

Anonymous

0
21|1

48
310

30 май 2014, 16:54

Anonymous Перейти к последнему сообщению

В этой теме нет новых непрочитанных сообщений. Скачать торрент Проверен [iPad] На крючке / Eagle Eye (Д. Дж. Карузо / D.J. Caruso) [2008 г., США, Германия, боевик, триллер, детектив, BDRip]

в форуме Фильмы для iPod, iPhone, iPad, Размер: 2.39 ГБ, Здоровье: 100%

Anonymous

0
11|4

25
0

11 май 2015, 01:39

Anonymous Перейти к последнему сообщению

В этой теме нет новых непрочитанных сообщений. Скачать торрент На крючке / Eagle Eye (Д. Дж. Карузо / D.J. Caruso) [2008 г., Боевик, триллер, детектив, HDRip] Dub Альтернативная версия (финал)

в форуме Боевики, Размер: 743.04 МБ, Здоровье: 100%

Anonymous

0
32|4

41
1

12 фев 2014, 11:46

Anonymous Перейти к последнему сообщению

В этой теме нет новых непрочитанных сообщений. Скачать торрент Проверен [PSP] На крючке! / На крючке! (2011) DVDRip

в форуме Видео для смартфонов и КПК, Размер: 555.41 МБ, Здоровье: ???%

Anonymous

0
0|1

14
0

25 окт 2014, 23:14

Anonymous Перейти к последнему сообщению



Сейчас этот форум просматривают: нет зарегистрированных пользователей и гости: 1


Вы не можете начинать темы
Вы не можете отвечать на сообщения
Вы не можете редактировать свои сообщения
Вы не можете удалять свои сообщения
Вы не можете добавлять вложения

Перейти:  

!ВНИМАНИЕ!
 Ресурс не предоставляет электронные версии произведений, а занимается лишь коллекционированием и каталогизацией ссылок, присылаемых и публикуемых на форуме нашими читателями. Если вы являетесь правообладателем какого-либо представленного материала и не желаете чтобы ссылка на него находилась в нашем каталоге, свяжитесь с нами и мы незамедлительно удалим её. Файлы для обмена на трекере предоставлены пользователями сайта, и администрация не несёт ответственности за их содержание. Просьба не заливать файлы, защищенные авторскими правами, а также файлы нелегального содержания!