На всех торрентах на трекере установлена скидка на скачивание в размере 100 процентов(а).
 Возможность скачивания торрента НЕ зависит от ограничений при низком ратио, низком аплоаде, требуемом ратио или требуемом аплоаде.


Начать новую тему Ответить на тему
Статистика раздачи
Размер: 22.51 ГБ | Добавлен: 15 мар 2014, 23:33 | Скачали: 5
Сидеров: 4  [0 байт/сек]    Личеров: 4  [0 байт/сек]
Пред. тема | След. тема 

Автор
Сообщение

СообщениеДобавлено: 15 мар 2014, 23:33 

Вий (2013) BDRemux

«Не бойся...»
Год выпуска: 2013
Производство: Россия, Украина, Германия, Великобритания, Чехия
Жанр: Фэнтези, триллер, приключения

Описание фильма:
Начало XVIII века. Картограф Джонатан Грин совершает научное путешествие из Европы на Восток. Проследовав через Трансильванию и преодолев Карпатские горы, он попадает в затерянную среди непроходимых лесов деревушку. Только воля случая и густой туман могли занести его в это проклятое место. Народ, живущий здесь, не похож ни на один доселе виданный путешественником. Эти люди, оградив себя от остального мира глубоким рвом, наивно верят, что смогут уберечься от нечисти, не понимая, что она уже давно поселилась в их душах и только ждёт случая, чтобы вырваться наружу. Даже в страшном сне учёный-материалист не предполагал, что здесь ему уготована встреча с верным слугой дьявола.

Режиссер: Олег Степченко
Продюсер: Александр Куликов, Руслан Устинов, Алексей Петрухин
Актеры: Джейсон Флеминг, Андрей Смоляков, Алексей Чадов, Агния Дитковските, Юрий Цурило, Ольга Зайцева, Александр Яковлев, Игорь Жижикин, Валерий Золотухин, Нина Русланова

Перевод: Не требуется (Русский язык)
Субтитры: Отсутствуют



Дата мировой премьеры: 30 января 2014
Дата российской премьеры: 30 января 2014, «UPI»
Дата выхода DVD релиза: 3 марта 2014, «Новый Диск»
Дата выхода Blu-Ray релиза: 10 марта 2014, «Новый Диск»

Возраст: 12+

Продолжительность: 02:10:12
Качество видео: BDRemux

Видео: MPEG4_AVC/H.264, 1920x1080, ~22000 kbps, 23.976 fps
Аудио 1: DTS-HD MA 5.1, 2113 kbps, 48 kHz [Русский]
Аудио 2: AC3 5.1, 640 kbps, 48 kHz [Русский]
Полное имя : D:\Вий.(2013).BRemux.[1080p].mkv
Формат : Matroska
Версия формата : Version 2
Размер файла : 22,5 Гбайт
Продолжительность : 2 ч. 10 м.
Режим общего битрейта : Переменный
Общий поток : 24,8 Мбит/сек
Название фильма : Вий (2013) / Lelya_K for NNM-Club
Дата кодирования : UTC 2014-03-15 14:34:23
Программа кодирования : mkvmerge v5.7.0 ('The Whirlwind') built on Aug 7 2012 14:11:40
Библиотека кодирования : libebml v1.2.3 + libmatroska v1.3.0
Attachment : Yes

Видео
Идентификатор : 1
Формат : AVC
Формат/Информация : Advanced Video Codec
Профиль формата :
Параметр CABAC формата : Да
Параметр ReFrames формата : 4 кадра
Параметр GOP формата : M=3, N=18
Идентификатор кодека : V_MPEG4/ISO/AVC
Продолжительность : 2 ч. 10 м.
Вид битрейта : Переменный
Битрейт : 22,1 Мбит/сек
Максимальный битрейт : 33,0 Мбит/сек
Ширина : 1920 пикселей
Высота : 1080 пикселей
Соотношение сторон : 16:9
Режим частоты кадров : Постоянный
Частота кадров : 23,976 кадра/сек
Стандарт вещания : NTSC
Цветовое пространство : YUV
Субдискретизация насыщенности : 4:2:0
Битовая глубина : 8 бит
Тип развёртки : Прогрессивная
Бит/(Пиксели*Кадры) : 0.444
Размер потока : 20,1 Гбайт (89%)
Заголовок : Вий.(2013).BRemux.[1080p]
Язык : Russian
Default : Да
Forced : Нет
Основные цвета : BT.709
Характеристики трансфера : BT.709
Коэффициенты матрицы : BT.709

Аудио #1
Идентификатор : 2
Формат : DTS
Формат/Информация : Digital Theater Systems
Профиль формата : MA / Core
Идентификатор кодека : A_DTS
Продолжительность : 2 ч. 10 м.
Вид битрейта : Переменный
Битрейт : 1561 Кбит/сек / 1510 Кбит/сек
Каналы : 6 каналов
Расположение каналов : Front: L C R, Side: L R, LFE
Частота : 48,0 КГц
Битовая глубина : 16 бит
Метод сжатия : Без потерь / Lossy
Заголовок : DTS-HD MA 5.1 / 2113 kbps / Original
Язык : Russian
Default : Да
Forced : Нет

Аудио #2
Идентификатор : 3
Формат : AC-3
Формат/Информация : Audio Coding 3
Расширение режима : CM (complete main)
Параметр Endianness формата : Big
Идентификатор кодека : A_AC3
Продолжительность : 2 ч. 10 м.
Вид битрейта : Постоянный
Битрейт : 640 Кбит/сек
Каналы : 6 каналов
Расположение каналов : Front: L C R, Side: L R, LFE
Частота : 48,0 КГц
Битовая глубина : 16 бит
Метод сжатия : С потерями
Размер потока : 596 Мбайт (3%)
Заголовок : AC3 5.1 / 640 kbps / Original
Язык : Russian
Default : Нет
Forced : Нет

Меню
00:00:00.000 : ru:Chapter 1
00:16:15.474 : ru:Chapter 2
00:32:07.634 : ru:Chapter 3
00:44:54.650 : ru:Chapter 4
01:07:12.194 : ru:Chapter 5
01:20:37.791 : ru:Chapter 6
01:37:30.803 : ru:Chapter 7
01:52:43.131 : ru:Chapter 8
Скриншоты:


загрузка...
Правила, инструкции, FAQ!!!
Торрент  Добавлен [15 мар 2014, 23:33] Скачать торрент
Скачать торрент
[ Размер 113.23 КБ / Просмотров 31 ]

Статус  
 
Размер  22.51 ГБ
Приватный: Нет (DHT включён)
.torrent скачан  5
Как залить торрент? | Как скачать Torrent? | Как смотреть и слушать онлайн?  


     Отправить личное сообщение
   
Страница 1 из 1
Показать сообщения за:  Поле сортировки  
Начать новую тему Ответить на тему

   Похожие торренты   Автор   Ответы   Просмотры   Последнее сообщение 
В этой теме нет новых непрочитанных сообщений. Скачать торрент Проверен Прогулки с динозаврами 3D / Walking with Dinosaurs 3D (2013) BDRemux 3D [1080p] [3D/2D]

в форуме BD-Remux, Размер: 26.44 ГБ, Здоровье: ???%

Anonymous

0
0|1

178
2

09 авг 2014, 21:27

Anonymous Перейти к последнему сообщению

В этой теме нет новых непрочитанных сообщений. Скачать торрент Проверен Deep Purple - From the Setting Sun ... in Wacken 2013 (2015) BDRemux 1080p

в форуме Концерты (HD-Video), Размер: 14.7 ГБ, Здоровье: 100%

Гость

0
13|4

108
20

28 апр 2016, 22:17

Гость Перейти к последнему сообщению

В этой теме нет новых непрочитанных сообщений. Скачать торрент Тор 2: Царство тьмы / Thor: The Dark World (2013) BDRemux 1080p | Лицензия

в форуме BD-Remux, Размер: 24.02 ГБ, Здоровье: 100%

Anonymous

0
11|4

139
8

14 фев 2014, 17:45

Anonymous Перейти к последнему сообщению

В этой теме нет новых непрочитанных сообщений. Скачать торрент Проверен Город звука / Sound City [США, 2013, Документальный, музыка, BDRemux 1080p] DVO (Омикрон)

в форуме Концерты (HD-Video), Размер: 30.48 ГБ, Здоровье: 100%

Anonymous

0
5|1

2
0

23 окт 2016, 15:25

Anonymous Перейти к последнему сообщению

В этой теме нет новых непрочитанных сообщений. Скачать торрент Проверен Тарзан в 3Д / Tarzan 3D (Райнхард Клоосс) [2013, Мультфильм, семейный, приключения, BDremux, 1080p] BD3D

в форуме 3D Мультфильмы, Размер: 20.51 ГБ, Здоровье: 0%

Anonymous

0
0|0

5
0

07 сен 2016, 18:00

Anonymous Перейти к последнему сообщению



Сейчас этот форум просматривают: нет зарегистрированных пользователей и гости: 1


Вы не можете начинать темы
Вы не можете отвечать на сообщения
Вы не можете редактировать свои сообщения
Вы не можете удалять свои сообщения
Вы не можете добавлять вложения

Перейти:  

!ВНИМАНИЕ!
 Ресурс не предоставляет электронные версии произведений, а занимается лишь коллекционированием и каталогизацией ссылок, присылаемых и публикуемых на форуме нашими читателями. Если вы являетесь правообладателем какого-либо представленного материала и не желаете чтобы ссылка на него находилась в нашем каталоге, свяжитесь с нами и мы незамедлительно удалим её. Файлы для обмена на трекере предоставлены пользователями сайта, и администрация не несёт ответственности за их содержание. Просьба не заливать файлы, защищенные авторскими правами, а также файлы нелегального содержания!