На всех торрентах на трекере установлена скидка на скачивание в размере 100 процентов(а).
 Возможность скачивания торрента НЕ зависит от ограничений при низком ратио, низком аплоаде, требуемом ратио или требуемом аплоаде.


Начать новую тему Ответить на тему
Статистика раздачи
Размер: 46.02 ГБ | Добавлен: 24 дек 2012, 23:14 | Скачали: 0
Сидеров: 0  [0 байт/сек]    Личеров: 2  [0 байт/сек]
Пред. тема | След. тема 

Автор
Сообщение

СообщениеДобавлено: 24 дек 2012, 23:14 




Радиоволна / Радиочастота / Frequency

Страна: США
Жанр: фантастика, триллер, драма
Год выпуска: 2000
Продолжительность: 01:58:59
Режиссер: Грегори Хоблит / Gregory Hoblit
В ролях: Деннис Куэйд, Джеймс Кэвизел, Шоун Дойл, Элизабет Митчелл, Андре Брогер, Ноа Эммерик, Мелисса Эррико, Дэниэл Хенсон, Джордан Бриджес, Стефен Джофф и др.


Описание: Полицейский Джон Салливэн (Джеймс Кэвизел) случайно связывается по любительской радиостанции со своим покойным отцом, пожарным Фрэнком Салливэном (Деннис Куэйд), который погиб во время тушения пожара много лет назад. Удостоверившись в том, что они действительно сын и отец, сын начал давать советы отцу, как можно изменить прошлое, чтобы предотвратить трагическое событие. Но они еще не догадываются, к каким необратимым последствиям может привести изменение прошлого...


Информация:
Качество: BDRemux 1080p
Видео: MPEG-4 AVC Video / 25934 kbps / 1080p / 23.976 fps / 16:9 / High Profile 4.1
Аудио#1: Russian: 48 kHz, AC3 5.1 @ 448 kbps |Дублированный|
Аудио#2: Russian: 48 kHz, DTS-HD Master Audio 7.1 @ 4797 kbps (DTS Core: 5.1 / 48 kHz / 1509 kbps / 24-bit) |Многоголосый закадровый, Киномания|
Аудио#3: Russian: 48 kHz, DTS-HD Master Audio 7.1 @ 4789 kbps (DTS Core: 5.1 / 48 kHz / 1509 kbps / 24-bit) |Многоголосый закадровый, CPDigital|
Аудио#4: Russian: 48 kHz, DTS-HD Master Audio 7.1 @ 4813 kbps (DTS Core: 5.1 / 48 kHz / 1509 kbps / 24-bit) |Авторский закадровый, Гаврилов|
Аудио#5: Russian: 48 kHz, DTS-HD Master Audio 7.1 @ 4790 kbps (DTS Core: 5.1 / 48 kHz / 1509 kbps / 24-bit) |Авторский закадровый, Живов|
Аудио#6: Russian: 48 kHz, DTS-HD Master Audio 7.1 @ 4794 kbps (DTS Core: 5.1 / 48 kHz / 1509 kbps / 24-bit) |Авторский закадровый, Визгунов|
Аудио#7: English: 48 kHz, DTS-HD Master Audio 7.1 @ 4763 kbps (DTS Core: 5.1 / 48 kHz / 1509 kbps / 24-bit)
Аудио#8: English: 48 kHz, AC3 2.0 @ 192 kbps |Commentary track #1|
Аудио#9: English: 48 kHz, AC3 2.0 @ 192 kbps |Commentary track #2|
Cубтитры: Russian, English



Format : Matroska
Format version : Version 2
File size : 271 MiB
Duration : 41s 836ms
Overall bit rate mode : Variable
Overall bit rate : 54.4 Mbps
Encoded date : UTC 2012-08-18 21:10:42
Writing application : mkvmerge v3.2.0 ('Beginnings') built on Feb 12 2010 16:46:17
Writing library : libebml v0.7.9 + libmatroska v0.8.1
Video
ID : 1
Format : AVC
Format/Info : Advanced Video Codec
Format profile : High@L4.1
Format settings, CABAC : Yes
Format settings, ReFrames : 2 frames
Format settings, GOP : M=1, N=10
Muxing mode : Container profile=Unknown@0.0
Codec ID : V_MPEG4/ISO/AVC
Duration : 41s 834ms
Bit rate mode : Variable
Bit rate : 24.5 Mbps
Width : 1 920 pixels
Height : 1 080 pixels
Display aspect ratio : 16:9
Frame rate : 23.976 fps
Color space : YUV
Chroma subsampling : 4:2:0
Bit depth : 8 bits
Scan type : Progressive
Bits/(Pixel*Frame) : 0.493
Stream size : 122 MiB (45%)
Default : No
Forced : No
Audio #1
ID : 2
Format : AC-3
Format/Info : Audio Coding 3
Mode extension : CM (complete main)
Format settings, Endianness : Big
Codec ID : A_AC3
Duration : 41s 836ms
Bit rate mode : Constant
Bit rate : 448 Kbps
Channel(s) : 6 channels
Channel positions : Front: L C R, Side: L R, LFE
Sampling rate : 48.0 KHz
Bit depth : 16 bits
Compression mode : Lossy
Delay relative to video : 12ms
Stream size : 2.23 MiB (1%)
Title : AC3 5.1 ch 448 kbps Дубляж
Language : Russian
Default : Yes
Forced : No
Audio #2
ID : 3
Format : DTS
Format/Info : Digital Theater Systems
Format profile : MA / Core
Codec ID : A_DTS
Duration : 41s 836ms
Bit rate mode : Variable
Bit rate : 4 642 Kbps / 1 510 Kbps
Channel(s) : 8 channels / 6 channels
Channel positions : Front: L C R, Side: L R, Back: L R, LFE / Front: L C R, Side: L R, LFE
Sampling rate : 48.0 KHz
Bit depth : 24 bits
Compression mode : Lossless / Lossy
Title : DTSHD 7.1 ch 4797 kbps MVO Киномания
Language : Russian
Default : No
Forced : No
Audio #3
ID : 4
Format : DTS
Format/Info : Digital Theater Systems
Format profile : MA / Core
Codec ID : A_DTS
Duration : 41s 836ms
Bit rate mode : Variable
Bit rate : 4 714 Kbps / 1 510 Kbps
Channel(s) : 8 channels / 6 channels
Channel positions : Front: L C R, Side: L R, Back: L R, LFE / Front: L C R, Side: L R, LFE
Sampling rate : 48.0 KHz
Bit depth : 24 bits
Compression mode : Lossless / Lossy
Title : DTSHD 7.1 ch 4789 kbps MVO CP Digital
Language : Russian
Default : No
Forced : No
Audio #4
ID : 5
Format : DTS
Format/Info : Digital Theater Systems
Format profile : MA / Core
Codec ID : A_DTS
Duration : 41s 836ms
Bit rate mode : Variable
Bit rate : 4 678 Kbps / 1 510 Kbps
Channel(s) : 8 channels / 6 channels
Channel positions : Front: L C R, Side: L R, Back: L R, LFE / Front: L C R, Side: L R, LFE
Sampling rate : 48.0 KHz
Bit depth : 24 bits
Compression mode : Lossless / Lossy
Title : DTSHD 7.1 ch 4813 kbps VO А.Гаврилов
Language : Russian
Default : No
Forced : No
Audio #5
ID : 6
Format : DTS
Format/Info : Digital Theater Systems
Format profile : MA / Core
Codec ID : A_DTS
Duration : 41s 836ms
Bit rate mode : Variable
Bit rate : 4 618 Kbps / 1 510 Kbps
Channel(s) : 8 channels / 6 channels
Channel positions : Front: L C R, Side: L R, Back: L R, LFE / Front: L C R, Side: L R, LFE
Sampling rate : 48.0 KHz
Bit depth : 24 bits
Compression mode : Lossless / Lossy
Title : DTSHD 7.1 ch 4790 kbps VO Ю.Живов
Language : Russian
Default : No
Forced : No
Audio #6
ID : 7
Format : DTS
Format/Info : Digital Theater Systems
Format profile : MA / Core
Codec ID : A_DTS
Duration : 41s 836ms
Bit rate mode : Variable
Bit rate : 4 648 Kbps / 1 510 Kbps
Channel(s) : 8 channels / 6 channels
Channel positions : Front: L C R, Side: L R, Back: L R, LFE / Front: L C R, Side: L R, LFE
Sampling rate : 48.0 KHz
Bit depth : 24 bits
Compression mode : Lossless / Lossy
Title : DTSHD 7.1 ch 4794 kbps VO С.Визгунов
Language : Russian
Default : No
Forced : No
Audio #7
ID : 8
Format : DTS
Format/Info : Digital Theater Systems
Format profile : MA / Core
Codec ID : A_DTS
Duration : 41s 836ms
Bit rate mode : Variable
Bit rate : 4 624 Kbps / 1 510 Kbps
Channel(s) : 8 channels / 6 channels
Channel positions : Front: L C R, Side: L R, Back: L R, LFE / Front: L C R, Side: L R, LFE
Sampling rate : 48.0 KHz
Bit depth : 24 bits
Compression mode : Lossless / Lossy
Title : DTSHD 7.1 ch 4763 kbps
Language : English
Default : No
Forced : No
Audio #8
ID : 9
Format : AC-3
Format/Info : Audio Coding 3
Format profile : Dolby Digital
Mode extension : CM (complete main)
Format settings, Endianness : Big
Codec ID : A_AC3
Duration : 41s 836ms
Bit rate mode : Constant
Bit rate : 192 Kbps
Channel(s) : 2 channels
Channel positions : Front: L R
Sampling rate : 48.0 KHz
Bit depth : 16 bits
Compression mode : Lossy
Stream size : 981 KiB (0%)
Title : AC3 2 ch 192 kbps Коментарии №1
Language : English
Default : No
Forced : No
Audio #9
ID : 10
Format : AC-3
Format/Info : Audio Coding 3
Format profile : Dolby Digital
Mode extension : CM (complete main)
Format settings, Endianness : Big
Codec ID : A_AC3
Duration : 41s 836ms
Bit rate mode : Constant
Bit rate : 192 Kbps
Channel(s) : 2 channels
Channel positions : Front: L R
Sampling rate : 48.0 KHz
Bit depth : 16 bits
Compression mode : Lossy
Stream size : 981 KiB (0%)
Title : AC3 2 ch 192 kbps Коментарии №2
Language : English
Default : No
Forced : No
Text #1
ID : 11
Format : UTF-8
Codec ID : S_TEXT/UTF8
Codec ID/Info : UTF-8 Plain Text
Language : Russian
Default : No
Forced : No
Text #2
ID : 12
Format : UTF-8
Codec ID : S_TEXT/UTF8
Codec ID/Info : UTF-8 Plain Text
Language : English
Default : No
Forced : No



загрузка...
Правила, инструкции, FAQ!!!
Торрент  Добавлен [24 дек 2012, 23:14] Скачать торрент
Скачать торрент
[ Размер 230.58 КБ / Просмотров 23 ]

Статус
Проверен 
 
Размер  46.02 ГБ
Приватный: Нет (DHT включён)
.torrent скачан  0
Как залить торрент? | Как скачать Torrent? | Как смотреть и слушать онлайн?  


     Отправить личное сообщение
   
Страница 1 из 1
Показать сообщения за:  Поле сортировки  
Начать новую тему Ответить на тему

   Похожие торренты   Автор   Ответы   Просмотры   Последнее сообщение 
В этой теме нет новых непрочитанных сообщений. Скачать торрент Проверен Nebo FM (Небо FM) - Радиоволна [2011, soft rock/ pop-punk/power-pop, HDCam 1080p]

в форуме Концерты (HD-Video), Размер: 642.08 МБ, Здоровье: 0%

Anonymous

0
0|0

0
0

23 окт 2016, 10:25

Anonymous Перейти к последнему сообщению

В этой теме нет новых непрочитанных сообщений. Скачать торрент Проверен Рататуй / Ratatouille (2007) BD-Remux 1080p | 3D-Video

в форуме HD-Video в 3D, Размер: 31.56 ГБ, Здоровье: 100%

Anonymous

0
18|2

65
112

22 июл 2014, 13:26

Anonymous Перейти к последнему сообщению

В этой теме нет новых непрочитанных сообщений. Скачать торрент 47 ронинов / 47 Ronin (2013) Blu-Ray Remux 1080p | Чистый звук

в форуме BD-Remux, Размер: 30.27 ГБ, Здоровье: 0%

Anonymous

0
0|0

264
1

22 мар 2014, 20:52

Anonymous Перейти к последнему сообщению

В этой теме нет новых непрочитанных сообщений. Скачать торрент Незаконченная жизнь / An Unfinished Life (2005) Blu-Ray Remux 1080p

в форуме BD-Remux, Размер: 17.48 ГБ, Здоровье: 100%

Anonymous

0
3|0

74
2

04 янв 2014, 17:06

Anonymous Перейти к последнему сообщению

В этой теме нет новых непрочитанных сообщений. Скачать торрент Проверен Остров женщин / Gefangene Frauen (1980) Blu-Ray Remux 1080p | A

в форуме BD-Remux, Размер: 26.67 ГБ, Здоровье: 100%

Anonymous

0
103|18

195
196

26 окт 2014, 23:36

Anonymous Перейти к последнему сообщению



Сейчас этот форум просматривают: нет зарегистрированных пользователей и гости: 1


Вы не можете начинать темы
Вы не можете отвечать на сообщения
Вы не можете редактировать свои сообщения
Вы не можете удалять свои сообщения
Вы не можете добавлять вложения

Перейти:  

!ВНИМАНИЕ!
 Ресурс не предоставляет электронные версии произведений, а занимается лишь коллекционированием и каталогизацией ссылок, присылаемых и публикуемых на форуме нашими читателями. Если вы являетесь правообладателем какого-либо представленного материала и не желаете чтобы ссылка на него находилась в нашем каталоге, свяжитесь с нами и мы незамедлительно удалим её. Файлы для обмена на трекере предоставлены пользователями сайта, и администрация не несёт ответственности за их содержание. Просьба не заливать файлы, защищенные авторскими правами, а также файлы нелегального содержания!