На всех торрентах на трекере установлена скидка на скачивание в размере 100 процентов(а).
 Возможность скачивания торрента НЕ зависит от ограничений при низком ратио, низком аплоаде, требуемом ратио или требуемом аплоаде.


Начать новую тему Ответить на тему
Статистика раздачи
Размер: 15.73 ГБ | Добавлен: 25 фев 2014, 22:42 | Скачали: 1
Сидеров: 7  [0 байт/сек]    Личеров: 2  [0 байт/сек]
Пред. тема | След. тема 

Автор
Сообщение

СообщениеДобавлено: 25 фев 2014, 22:42 

Подвиды / Subspecies

Год выпуска: 1991
Страна: США
Жанр: ужасы, фэнтези
Продолжительность: 01:23:06
Перевод: Авторский (одноголосый, закадровый) Андрей Гаврилов
Перевод: Авторский (одноголосый, закадровый) Михаил Иванов
Субтитры: нет

Режиссер: Тед Николау / Ted Nicolaou

В ролях: Энгус Скримм, Андерс Хове, Ирина Мовила, Лаура Тейт, Мишель МакБрайд, Иван Дж. Радо, Мара Григоре, Адриан Вылку, Майкл Уотсон, Лили Думитреску

Описание: Три студентки отправляются в этнографическую экспедицию, как раз в Трансильванию, в заброшенное селение по соседству со средневековым замком. Некто Стефан, тоже исследователь, берется им помочь в научных поисках.

Первый день после прибытия проходит в нормальном рабочем ритме. А потом наступает ночь - ночь вампиров, за ней следующая, и этому ужасу не будет конца...

Доп. информация: by Diablo
sample

Качество: BDRemux
Формат: MKV
Видео: MPEG-4 AVC Video 26391 kbps 1080i / 29,970 fps / 16:9 / High Profile 4.1
Аудио: Dolby Digital Audio Russian 2.0 / 48 kHz / 256 kbps | Гаврилов
Аудио: Dolby Digital Audio Russian 2.0 / 48 kHz / 192 kbps | Иванов
Аудио: Dolby Digital Audio English 2.0 / 48 kHz / 256 kbps

Дорожка №1 получена наложением чистого голоса на декодированные каналы AC3
За приобретение исходника большое спасибо sid34
MI
General
Unique ID : 202645005409091830665547128271402241592 (0x987402267D102FE087F20CA558050E38)
Complete name : G:\bluray\Subspecies.1991.1080i.Bluray.AVC.Remux.mkv
Format : Matroska
Format version : Version 2
File size : 15.7 GiB
Duration : 1h 23mn
Overall bit rate : 27.1 Mbps
Movie name : Subspecies.1991.1080i.Bluray.AVC.Remux
Encoded date : UTC 2012-03-09 23:15:47
Writing application : mkvmerge v4.9.1 ('Ich will') сборка от Jul 11 2011 23:53:15
Writing library : libebml v1.2.1 + libmatroska v1.1.1
[/quote]Video
ID : 1
Format : AVC
Format/Info : Advanced Video Codec
Format profile : High@L4.1
Format settings, CABAC : Yes
Format settings, ReFrames : 3 frames
Muxing mode : Container profile=Unknown@0.0
Codec ID : V_MPEG4/ISO/AVC
Duration : 1h 23mn
Bit rate mode : Variable
Bit rate : 25.9 Mbps
Maximum bit rate : 35.0 Mbps
Width : 1 920 pixels
Height : 1 080 pixels
Display aspect ratio : 16:9
Frame rate : 29.970 fps
Standard : NTSC
Color space : YUV
Chroma subsampling : 4:2:0
Bit depth : 8 bits
Scan type : Interlaced
Scan order : Top Field First
Bits/(Pixel*Frame) : 0.416
Stream size : 15.0 GiB (95%)
Title : uralmix
Color primaries : BT.709-5, BT.1361, IEC 61966-2-4, SMPTE RP177
Transfer characteristics : BT.709-5, BT.1361
Matrix coefficients : BT.709-5, BT.1361, IEC 61966-2-4 709, SMPTE RP177

Audio #1
ID : 2
Format : AC-3
Format/Info : Audio Coding 3
Mode extension : CM (complete main)
Codec ID : A_AC3
Duration : 1h 23mn
Bit rate mode : Constant
Bit rate : 256 Kbps
Channel(s) : 2 channels
Channel positions : Front: L R
Sampling rate : 48.0 KHz
Bit depth : 16 bits
Compression mode : Lossy
Stream size : 152 MiB (1%)
Title : Андрей Гаврилов
Language : Russian

Audio #2
ID : 3
Format : AC-3
Format/Info : Audio Coding 3
Mode extension : CM (complete main)
Codec ID : A_AC3
Duration : 1h 23mn
Bit rate mode : Constant
Bit rate : 192 Kbps
Channel(s) : 2 channels
Channel positions : Front: L R
Sampling rate : 48.0 KHz
Bit depth : 16 bits
Compression mode : Lossy
Stream size : 114 MiB (1%)
Title : Михаил Иванов
Language : Russian

Audio #3
ID : 4
Format : AC-3
Format/Info : Audio Coding 3
Mode extension : CM (complete main)
Codec ID : A_AC3
Duration : 1h 23mn
Bit rate mode : Constant
Bit rate : 256 Kbps
Channel(s) : 2 channels
Channel positions : Front: L R
Sampling rate : 48.0 KHz
Bit depth : 16 bits
Compression mode : Lossy
Stream size : 152 MiB (1%)
Language : English

Menu
00:00:00.000 : en:00:00:00.000
00:00:00.367 : en:00:00:00.367
00:04:41.815 : en:00:04:41.815
00:10:00.066 : en:00:10:00.066
00:15:28.261 : en:00:15:28.261
00:19:41.547 : en:00:19:41.547
00:24:29.501 : en:00:24:29.501
00:29:28.934 : en:00:29:28.934
00:34:58.930 : en:00:34:58.930
00:40:00.265 : en:00:40:00.265
00:45:00.298 : en:00:45:00.298
00:50:00.331 : en:00:50:00.331
00:55:00.364 : en:00:55:00.364
01:00:00.397 : en:01:00:00.397
01:04:56.593 : en:01:04:56.593
01:10:00.463 : en:01:10:00.463
01:14:56.993 : en:01:14:56.993
01:19:39.908 : en:01:19:39.908
Скриншоты
загрузка...
Правила, инструкции, FAQ!!!
Торрент  Добавлен [25 фев 2014, 22:42] Скачать торрент
Скачать торрент
[ Размер 79.17 КБ / Просмотров 14 ]

Статус  
 
Размер  15.73 ГБ
Приватный: Нет (DHT включён)
.torrent скачан  1
Как залить торрент? | Как скачать Torrent? | Как смотреть и слушать онлайн?  


     Отправить личное сообщение
   
Страница 1 из 1
Показать сообщения за:  Поле сортировки  
Начать новую тему Ответить на тему

   Похожие торренты   Автор   Ответы   Просмотры   Последнее сообщение 
В этой теме нет новых непрочитанных сообщений. Скачать торрент Шкатулка проклятия / Одержимость / The Possession (Уле Борнедаль / Ole Bornedal) [2012, США, Канада, ужасы, триллер, BDRemux 1080i] [Rus Transfer] Dub

в форуме 720p | 1080p, Размер: 18.6 ГБ, Здоровье: 100%

Anonymous

0
8|2

19
0

25 фев 2014, 22:40

Anonymous Перейти к последнему сообщению

В этой теме нет новых непрочитанных сообщений. Скачать торрент Проверен Паранорман, или Как приручить зомби в 3Д / ParaNorman 3D (Крис Батлер, Сэм Фелл / Chris Butler, Sam Fell) [2012, Мультфильм, ужасы, фэнтези, комедия, приключения, BDremux, 1080p] BD3D

в форуме HD-Video в 3D, Размер: 26.66 ГБ, Здоровье: 100%

Anonymous

0
11|4

116
0

02 ноя 2014, 09:57

Anonymous Перейти к последнему сообщению

В этой теме нет новых непрочитанных сообщений. Скачать торрент Проверен Реальная сказка (Андрей Мармонтов) [2011, Россия, Фэнтези, драма, комедия, семейный, сказка, BDRemux 1080i]

в форуме Наше кино (HD Video), Размер: 16.84 ГБ, Здоровье: 100%

Anonymous

0
14|6

83
0

12 апр 2015, 10:57

Anonymous Перейти к последнему сообщению

В этой теме нет новых непрочитанных сообщений. Скачать торрент Распутин (2013) BDRemux 1080i

в форуме BD-Remux, Размер: 8.27 ГБ, Здоровье: 100%

Anonymous

0
5|1

79
33

16 дек 2013, 18:36

Anonymous Перейти к последнему сообщению

В этой теме нет новых непрочитанных сообщений. Скачать торрент Проверен The Beatles: 1 + [Remastered] (2015) BDRemux 1080i

в форуме Концерты (HD-Video), Размер: 24 ГБ, Здоровье: 80%

Anonymous

0
4|5

240
1

18 ноя 2015, 20:06

Anonymous Перейти к последнему сообщению



Сейчас этот форум просматривают: нет зарегистрированных пользователей и гости: 1


Вы не можете начинать темы
Вы не можете отвечать на сообщения
Вы не можете редактировать свои сообщения
Вы не можете удалять свои сообщения
Вы не можете добавлять вложения

Перейти:  

!ВНИМАНИЕ!
 Ресурс не предоставляет электронные версии произведений, а занимается лишь коллекционированием и каталогизацией ссылок, присылаемых и публикуемых на форуме нашими читателями. Если вы являетесь правообладателем какого-либо представленного материала и не желаете чтобы ссылка на него находилась в нашем каталоге, свяжитесь с нами и мы незамедлительно удалим её. Файлы для обмена на трекере предоставлены пользователями сайта, и администрация не несёт ответственности за их содержание. Просьба не заливать файлы, защищенные авторскими правами, а также файлы нелегального содержания!