На всех торрентах на трекере установлена скидка на скачивание в размере 100 процентов(а).
 Возможность скачивания торрента НЕ зависит от ограничений при низком ратио, низком аплоаде, требуемом ратио или требуемом аплоаде.


Начать новую тему Ответить на тему
Статистика раздачи
Размер: 18.71 ГБ | Добавлен: 29 янв 2014, 16:26 | Скачали: 0
Сидеров: 1  [0 байт/сек]    Личеров: 1  [0 байт/сек]
Пред. тема | След. тема 

Автор
Сообщение

СообщениеДобавлено: 29 янв 2014, 16:26 

Название: Макс Манус: Человек войны
Оригинальное название: Max Manus
Год выпуска: 2008
Жанр: Боевик, драма, военный, биография, история, реальные события
Выпущено: Норвегия, Дания, Германия, B & T Film, Det Danske Filminstitut, Eurimages Council of Europe, Filmkameratene A/S, Miso Film, Nordic Film och TV Fund, Norsk Filminstitutt, Roenbergfilm
Режиссер: Хоаким Роннинг

В ролях: Аксель Хенни, Агнес Киттельсен, Николай Клеве Брош, Кен Дукен, Кристиан Рубек, Виктория Винге, Петтер Нэсс, Рон Доначи, Оливер Стоковски, Стиг Хоффмейер, Адам Смит, Пал Сверре Валхейм Хэйген

О фильме: «Макс Манус: Человек войны» – это фильм, основанный на реальных событиях. Картина рассказывает о жизни знаменитого диверсанта, вставшего на защиту своей Родины от вторгшихся во время Второй мировой войны фашистских войск. Фильм дает возможность увидеть войну глазами жителей Норвегии, о которой мы знаем, в общем-то, совсем немного. Двадцатилетний Макс Манус только недавно вернулся с русско-финской войны. Оказавшись в окупированной фашистами Норвегии, он, не задумываясь, вступает в движение сопротивления, проходит деверсионную подготовку в Шотландии и становится главным врагом оккупационного режима. Кровь, унижения, успехи и неудачи, чувство товарищества и предательство. Именно эта война принесла Максу Манусу любовь и признательность сограждан, а еще боль от потери друзей, гордость за правое дело, большую и настоящую любовь прекрасной женщины.


Файл

Качество: Blu-Ray Remux (1080i)
Видео: MPEG-4 AVC, 18992 Кбит/с, 1920x1080, 25 кадр/с
Аудио: Русский (AC3, 6 ch, 640 Кбит/с), (DTS-HD MA, 6 ch, 3457 Кбит/с), норвежский (AC3, 6 ch, 640 Кбит/с)

Продолжительность: 01:52:59
Перевод: Профессиональный многоголосый
Субтитры: Русские, английские
За исходник, большое спасибо HDClub
Сохранены оригинальные чаптеры как на Blu-Ray
Общее
Уникальный идентификатор : 190585832772855768804476086363895494102 (0x8F617F090413BB5689D1FA367775F5D6)
Полное имя : C:DownloadsMax.Manus.2008.BDRemux.(1080i).ExKinoRay.mkv
Формат : Matroska
Версия формата : Version 2
Размер файла : 18,7 Гбайт
Продолжительность : 1 ч. 52 м.
Режим общего битрейта : Переменный
Общий поток : 23,7 Мбит/сек
Название фильма : Макс Манус: Человек войны.2008.Сборка: ollan
Дата кодирования : UTC 2014-01-28 21:02:42
Программа кодирования : mkvmerge v5.6.0 ('Kenya Kane') built on May 27 2012 16:44:04
Библиотека кодирования : libebml v1.2.3 + libmatroska v1.3.0
Обложка : Cover Picture

Видео
Идентификатор : 1
Формат : AVC
Формат/Информация : Advanced Video Codec
Профиль формата : High@L4.1
Параметр CABAC формата : Да
Параметр ReFrames формата : 4 кадра
Идентификатор кодека : V_MPEG4/ISO/AVC
Продолжительность : 1 ч. 52 м.
Вид битрейта : Переменный
Максимальный битрейт : 33,0 Мбит/сек
Ширина : 1920 пикселей
Высота : 1080 пикселей
Соотношение сторон : 16:9
Режим частоты кадров : Постоянный
Частота кадров : 25,000 кадров/сек
Цветовое пространство : YUV
Субдискретизация насыщенности : 4:2:0
Битовая глубина : 8 бит
Тип развёртки : MBAFF
Default : Да
Forced : Нет
Основные цвета : BT.709
Характеристики трансфера : BT.709
Коэффициенты матрицы : BT.709

Аудио #1
Идентификатор : 2
Формат : AC-3
Формат/Информация : Audio Coding 3
Расширение режима : CM (complete main)
Параметр Endianness формата : Big
Идентификатор кодека : A_AC3
Продолжительность : 1 ч. 52 м.
Вид битрейта : Постоянный
Битрейт : 640 Кбит/сек
Каналы : 6 каналов
Расположение каналов : Front: L C R, Side: L R, LFE
Частота : 48,0 КГц
Битовая глубина : 16 бит
Метод сжатия : С потерями
Размер потока : 517 Мбайт (3%)
Язык : Russian
Default : Да
Forced : Нет

Аудио #2
Идентификатор : 3
Формат : DTS
Формат/Информация : Digital Theater Systems
Профиль формата : MA / Core
Режим : 16
Параметр Endianness формата : Big
Идентификатор кодека : A_DTS
Продолжительность : 1 ч. 52 м.
Вид битрейта : Переменный
Битрейт : Неизвестно / 1509 Кбит/сек
Каналы : 6 каналов
Расположение каналов : Front: L C R, Side: L R, LFE
Частота : 48,0 КГц
Битовая глубина : 24 бит
Метод сжатия : Без потерь / Lossy
Язык : Russian
Default : Нет
Forced : Нет

Аудио #3
Идентификатор : 4
Формат : AC-3
Формат/Информация : Audio Coding 3
Расширение режима : CM (complete main)
Параметр Endianness формата : Big
Идентификатор кодека : A_AC3
Продолжительность : 1 ч. 52 м.
Вид битрейта : Постоянный
Битрейт : 640 Кбит/сек
Каналы : 6 каналов
Расположение каналов : Front: L C R, Side: L R, LFE
Частота : 48,0 КГц
Битовая глубина : 16 бит
Метод сжатия : С потерями
Размер потока : 517 Мбайт (3%)
Язык : Norwegian
Default : Нет
Forced : Нет

Текст #1
Идентификатор : 5
Формат : UTF-8
Идентификатор кодека : S_TEXT/UTF8
Идентификатор кодека/Информация : UTF-8 Plain Text
Язык : Russian
Default : Нет
Forced : Нет

Текст #2
Идентификатор : 6
Формат : UTF-8
Идентификатор кодека : S_TEXT/UTF8
Идентификатор кодека/Информация : UTF-8 Plain Text
Заголовок : English
Язык : English
Default : Нет
Forced : Нет

Меню
00:00:00.000 : :Chapter 01
00:06:51.080 : :Chapter 02
00:15:13.320 : :Chapter 03
00:22:59.359 : :Chapter 04
00:28:39.400 : :Chapter 05
00:37:37.200 : :Chapter 06
00:45:59.120 : :Chapter 07
00:55:19.400 : :Chapter 08
01:07:27.760 : :Chapter 09
01:18:42.479 : :Chapter 10
01:31:53.479 : :Chapter 11
01:49:15.479 : :Chapter 12
01:52:59.680 : :Chapter 13







Релиз от: Сборка:
загрузка...
Правила, инструкции, FAQ!!!
Торрент  Добавлен [29 янв 2014, 16:26] Скачать торрент
Скачать торрент
[ Размер 47.3 КБ / Просмотров 8 ]

Статус  
 
Размер  18.71 ГБ
Приватный: Нет (DHT включён)
.torrent скачан  0
Как залить торрент? | Как скачать Torrent? | Как смотреть и слушать онлайн?  


     Отправить личное сообщение
   
Страница 1 из 1
Показать сообщения за:  Поле сортировки  
Начать новую тему Ответить на тему

   Похожие торренты   Автор   Ответы   Просмотры   Последнее сообщение 
В этой теме нет новых непрочитанных сообщений. Скачать торрент Макс Манус: Человек войны / Max Manus (2008) BDRip

в форуме Боевики, Размер: 2.18 ГБ, Здоровье: 0%

Anonymous

0
0|0

39
1

29 янв 2014, 16:22

Anonymous Перейти к последнему сообщению

В этой теме нет новых непрочитанных сообщений. Скачать торрент Ромео и Джульетта / Romeo and Juliet (2013) BDRemux 1080i | Лицензия

в форуме BD-Remux, Размер: 11.2 ГБ, Здоровье: 100%

Anonymous

0
3|0

88
3

18 дек 2013, 06:27

Anonymous Перейти к последнему сообщению

В этой теме нет новых непрочитанных сообщений. Скачать торрент Проверен Steven Tyler - Walk This Way (Live@Shea Stadium) 1080i [2008, Rock, BDRemux]

в форуме Концерты (HD-Video), Размер: 897.41 МБ, Здоровье: 0%

Anonymous

0
0|0

0
0

23 окт 2016, 13:06

Anonymous Перейти к последнему сообщению

В этой теме нет новых непрочитанных сообщений. Скачать торрент Макс Барри | Человек-машина [2013] [FB2][TXT][JAVA(jar+jad)]

в форуме Фантастика, фэнтези, Размер: 1.95 МБ, Здоровье: 100%

Anonymous

0
4|1

26
1

09 янв 2014, 22:51

Anonymous Перейти к последнему сообщению

В этой теме нет новых непрочитанных сообщений. Скачать торрент Стеснительный Макс / Раздражительный Макс / Max Pinlig / Max Embarrassing (Лотте Свендсен / Lotte Svendsen) [2008, Дания, Комедия, семейный, DVDRip] Sub Rus + Original Dan

в форуме Комедии, Размер: 697.09 МБ, Здоровье: ???%

Anonymous

0
0|1

55
0

13 фев 2014, 06:33

Anonymous Перейти к последнему сообщению



Сейчас этот форум просматривают: нет зарегистрированных пользователей и гости: 1


Вы не можете начинать темы
Вы не можете отвечать на сообщения
Вы не можете редактировать свои сообщения
Вы не можете удалять свои сообщения
Вы не можете добавлять вложения

Перейти:  

!ВНИМАНИЕ!
 Ресурс не предоставляет электронные версии произведений, а занимается лишь коллекционированием и каталогизацией ссылок, присылаемых и публикуемых на форуме нашими читателями. Если вы являетесь правообладателем какого-либо представленного материала и не желаете чтобы ссылка на него находилась в нашем каталоге, свяжитесь с нами и мы незамедлительно удалим её. Файлы для обмена на трекере предоставлены пользователями сайта, и администрация не несёт ответственности за их содержание. Просьба не заливать файлы, защищенные авторскими правами, а также файлы нелегального содержания!