На всех торрентах на трекере установлена скидка на скачивание в размере 100 процентов(а).
 Возможность скачивания торрента НЕ зависит от ограничений при низком ратио, низком аплоаде, требуемом ратио или требуемом аплоаде.


Начать новую тему Ответить на тему
Статистика раздачи
Размер: 200.27 ГБ | Добавлен: 16 янв 2013, 22:51 | Скачали: 1
Сидеров: 27  [0 байт/сек]    Личеров: 9  [0 байт/сек]
Пред. тема | След. тема 

Автор
Сообщение

СообщениеДобавлено: 16 янв 2013, 22:59 

Индиана Джонс: Квадрология / Indiana Jones: The Complete Adventures

Год выпуска: 1981 - 2008
Страна: США
Жанр: фантастика, боевик, триллер, приключения
Продолжительность: 01:55:18 | 01:58:28 | 02:06:53 | 02:02:31

by Volshebnik




Индиана Джонс: В поисках утраченного ковчега / Raiders of the Lost Ark
Слоган: «Indiana Jones - the new hero from the creators of JAWS and STAR WARS.»

Год выпуска: 1981
Страна: США
Жанр: боевик, приключения
Продолжительность: 01:55:18
Перевод:
Многоголосый, Премьер Видео Фильм
Многоголосый, НТВ+
Многоголосый, Карусель
Авторский, Гаврилов Андрей
Авторский, Михалев Алексей

Cубтитры: русские, английские, французские, испанские
Навигация по главам: есть

Режиссер: Стивен Спилберг / Steven Spielberg
Сценарий: Лоуренс Кэздан / Lawrence Kasdan, Джордж Лукас / George Lucas, Филип Кауфман / Philip Kaufman
Продюсер: Фрэнк Маршалл / Frank Marshall, Ховард Дж. Казанян / Howard G. Kazanjian, Джордж Лукас / George Lucas, Роберт Уоттс / Robert Watts
Оператор: Дуглас Слоком / Douglas Slocombe
Композитор: Джон Уильямс / John Williams

В ролях: Харрисон Форд (Indiana Jones), Карен Аллен (Marion Ravenwood), Пол Фримен (Dr. Ren� Belloq), Рональд Лейси (Major Arnold Toht), Джон Рис-Дэвис (Sallah), Денхолм Эллиот (Dr. Marcus Brody), Альфред Молина (Satipo), Вольф Калер (Colonel Dietrich), Энтони Хиггинс (Gobler), Вик Тэблиан (Barranca / Monkey Man), Дон Феллоуз (Col. Musgrove), Уильям Хуткинс (Major Eaton)


Описание: Известный археолог и специалист по оккультным наукам доктор Джонс получает опасное задание от правительства США. Он должен отправиться на поиски уникальной реликвии - священного Ковчега. Но Индиана и не подозревает, что аналогичный приказ уже получили тайные агенты Адольфа Гитлера...
Этим потрясающим фильмом продюсер Джордж Лукас и режиссер Стивен Спилберг положили начало саги о странствиях благородного доктора Джонса по всевозможным уголкам земного шара.


Рейтинг
kinopoisk.ru: 8.074 (38 352)
imdb.com: 8.70 (365 646)
MPAA: PG - Рекомендуется присутствие родителей


Качество: Blu-ray
Исходник: by Volshebnik
Формат: BDMV
Видеокодек: AVC
Аудиокодек: AC3, DTS, DTS-HD MA
Видео: MPEG-4 AVC Video / 34848 kbps / 1080p / 23,976 fps / 16:9 / High Profile 4.1
Аудио: Russian / Dolby Digital Audio / 2.0 / 48 kHz / 192 kbps / Многоголосый, Премьер Видео Фильм
Аудио: Russian / Dolby Digital Audio / 448 kbps / 5.1 / 48 kHz / 448 kbps / Многоголосый, НТВ+
Аудио: Russian / DTS Audio / 1509 kbps / 5.1 / 48 kHz / 1509 kbps / Многоголосый, Карусель
Аудио: Russian / DTS Audio / 1509 kbps / 5.1 / 48 kHz / 1509 kbps / Авторский, Гаврилов Андрей
Аудио: Russian / DTS Audio / 1509 kbps / 5.1 / 48 kHz / 1509 kbps / Авторский, Михалев Алексей
Аудио: English / DTS-HD Master Audio / 5.1 / 48 kHz / 3816 kbps / 24-bit (DTS Core: 5.1 / 48 kHz / 1509 kbps / 24-bit)




DISC INFO:

Disc Title: 1-INDIANA_JONES_BD_HDCLUB_BY_VOLSHEBNIK
Disc Size: 42 438 813 856 bytes
Protection: AACS
BD-Java: Yes
BDInfo: 0.5.6

PLAYLIST REPORT:

Name: 00800.MPLS
Length: 1:55:18 (h:m:s)
Size: 40 364 844 864 bytes
Total Bitrate: 46,67 Mbps

VIDEO:

Codec Bitrate Description
----- ------- -----------
MPEG-4 AVC Video 34848 kbps 1080p / 23,976 fps / 16:9 / High Profile 4.1

AUDIO:

Codec Language Bitrate Description
----- -------- ------- -----------
DTS-HD Master Audio English 3816 kbps 5.1 / 48 kHz / 3816 kbps / 24-bit (DTS Core: 5.1 / 48 kHz / 1509 kbps / 24-bit)
DTS Audio Russian 1509 kbps 5.1 / 48 kHz / 1509 kbps / 24-bit
DTS Audio Russian 1509 kbps 5.1 / 48 kHz / 1509 kbps / 24-bit
DTS Audio Russian 1509 kbps 5.1 / 48 kHz / 1509 kbps / 24-bit
Dolby Digital Audio Russian 448 kbps 5.1 / 48 kHz / 448 kbps
Dolby Digital Audio Russian 192 kbps 2.0 / 48 kHz / 192 kbps

SUBTITLES:

Codec Language Bitrate Description
----- -------- ------- -----------
Presentation Graphics English 20,555 kbps
Presentation Graphics English 24,783 kbps
Presentation Graphics French 22,343 kbps
Presentation Graphics Russian 16,253 kbps
Presentation Graphics Spanish 16,188 kbps

FILES:

Name Time In Length Size Total Bitrate
---- ------- ------ ---- -------------
00800.M2TS 0:00:00.000 1:55:18.870 40 364 844 864 46 672











Индиана Джонс и Храм Судьбы / Indiana Jones and the Temple of Doom
Слоган: «The man in the hat is back...»

Год выпуска: 1984
Страна: США
Жанр: боевик, приключения
Продолжительность: 01:58:28
Перевод:
Многоголосый, Премьер Видео Фильм
Многоголосый, НТВ+
Многоголосый, Карусель
Авторский, Гаврилов Андрей
Авторский, Михалев Алексей

Cубтитры: русские, английские, французские, испанские
Навигация по главам: есть

Режиссер: Стивен Спилберг / Steven Spielberg
Сценарий: Уиллард Хайк / Willard Huyck, Глория Кац / Gloria Katz, Джордж Лукас / George Lucas
Продюсер: Кэтлин Кеннеди / Kathleen Kennedy, Джордж Лукас / George Lucas, Фрэнк Маршалл / Frank Marshall, Роберт Уоттс / Robert Watts
Оператор: Дуглас Слоком / Douglas Slocombe
Композитор: Джон Уильямс / John Williams, Коул Портер / Cole Porter

В ролях: Харрисон Форд (Indiana Jones), Кейт Кэпшоу (Wilhelmina 'Willie' Scott), Джонатан Ке Кван (Short Round), Амриш Пури (Mola Ram), Рошан Сет (Chattar Lal), Филип Стоун (Captain Blumburtt), Рой Чяо (Lao Che), Дэвид Ип (Wu Han), Рик Янг (Kao Kan), Цзю Чуака (Chen), Рекс Нгуи (Maitre d'), Филип Тан (Chief Henchman)


Описание: Вторая часть невероятных похождений прославленного археолога и искателя приключений Индианы Джонса. В этот раз бесстрашный доктор Джонс совершит путешествие в сердце Гималаев вместе с ресторанной певичкой Уилли Скотт и своим верным маленьким помощником Коротышкой.
Здесь, среди величественных гор, археологу и его спутникам предстоит столкнуться кровавым культом поклонения древней Богине Смерти - Кали. Станет ли Индиана следующим несчастным, погибшим на жутком алтаре человеческих жертвоприношений, или ему, как всегда, удастся вырваться из цепких лап страха и разобраться со злодеями.


Рейтинг
kinopoisk.ru: 7.981 (25 954)
imdb.com: 7.60 (173 897)
MPAA: PG - Рекомендуется присутствие родителей


Качество: Blu-ray
Исходник: by Volshebnik
Формат: BDMV
Видеокодек: AVC
Аудиокодек: AC3, DTS, DTS-HD MA
Видео: MPEG-4 AVC Video / 34929 kbps / 1080p / 23,976 fps / 16:9 / High Profile 4.1
Аудио: Russian / Dolby Digital Audio / 2.0 / 48 kHz / 192 kbps / Многоголосый, Премьер Видео Фильм
Аудио: Russian / Dolby Digital Audio / 448 kbps / 5.1 / 48 kHz / 448 kbps / Многоголосый, НТВ+
Аудио: Russian / DTS Audio / 1509 kbps / 5.1 / 48 kHz / 1509 kbps / Многоголосый, Карусель
Аудио: Russian / DTS Audio / 1509 kbps / 5.1 / 48 kHz / 1509 kbps / Авторский, Гаврилов Андрей
Аудио: Russian / Dolby Digital Audio / 448 kbps / 5.1 / 48 kHz / 448 kbps / Авторский, Михалев Алексей
Аудио: English / DTS-HD Master Audio / 5.1 / 48 kHz / 4365 kbps / 24-bit (DTS Core: 5.1 / 48 kHz / 1509 kbps / 24-bit)




DISC INFO:

Disc Title: 2-INDIANA_JONES_BD_HDCLUB_BY_VOLSHEBNIK
Disc Size: 42 301 353 836 bytes
Protection: AACS
BD-Java: Yes
BDInfo: 0.5.6

PLAYLIST REPORT:

Name: 00800.MPLS
Length: 1:58:28 (h:m:s)
Size: 40 931 401 728 bytes
Total Bitrate: 46,07 Mbps

VIDEO:

Codec Bitrate Description
----- ------- -----------
MPEG-4 AVC Video 34929 kbps 1080p / 23,976 fps / 16:9 / High Profile 4.1

AUDIO:

Codec Language Bitrate Description
----- -------- ------- -----------
DTS-HD Master Audio English 4365 kbps 5.1 / 48 kHz / 4365 kbps / 24-bit (DTS Core: 5.1 / 48 kHz / 1509 kbps / 24-bit)
DTS Audio Russian 1509 kbps 5.1 / 48 kHz / 1509 kbps / 24-bit
DTS Audio Russian 1509 kbps 5.1 / 48 kHz / 1509 kbps / 24-bit
Dolby Digital Audio Russian 448 kbps 5.1 / 48 kHz / 448 kbps
Dolby Digital Audio Russian 448 kbps 5.1 / 48 kHz / 448 kbps
Dolby Digital Audio Russian 192 kbps 2.0 / 48 kHz / 192 kbps

SUBTITLES:

Codec Language Bitrate Description
----- -------- ------- -----------
Presentation Graphics English 16,775 kbps
Presentation Graphics English 21,128 kbps
Presentation Graphics French 18,726 kbps
Presentation Graphics Russian 14,776 kbps
Presentation Graphics Spanish 13,985 kbps

FILES:

Name Time In Length Size Total Bitrate
---- ------- ------ ---- -------------
00800.M2TS 0:00:00.000 1:58:28.226 40 931 401 728 46 067











Индиана Джонс и последний крестовый поход / Indiana Jones and the Last Crusade
Слоган: «The man with the hat is back. And this time, he's bringing his Dad.»

Год выпуска: 1989
Страна: США
Жанр: боевик, приключения
Продолжительность: 02:06:53
Перевод:
Многоголосый, Премьер Видео Фильм
Многоголосый, НТВ+
Многоголосый, Карусель
Авторский, Гаврилов Андрей
Авторский, Михалев Алексей

Cубтитры: русские, английские, французские, испанские
Навигация по главам: есть

Режиссер: Стивен Спилберг / Steven Spielberg
Сценарий: Джефри Боум / Jeffrey Boam, Джордж Лукас / George Lucas, Менно Мейес / Menno Meyjes, Филип Кауфман / Philip Kaufman
Продюсер: Роберт Уоттс / Robert Watts, Джордж Лукас / George Lucas, Фрэнк Маршалл / Frank Marshall, Артур Ф. Репола / Arthur F. Repola
Оператор: Дуглас Слоком / Douglas Slocombe
Композитор: Джон Уильямс / John Williams

В ролях: Харрисон Форд (Indiana Jones), Шон Коннери (Professor Henry Jones), Денхолм Эллиот (Marcus Brody), Элисон Дуди (Dr. Elsa Schneider), Джон Рис-Дэвис (Sallah), Джулиан Гловер (Walter Donovan), Ривер Феникс (Young Indy), Майкл Бирн (General Vogel), Кеворк Маликян (Kazim), Роберт Эддисон (Grail Knight), Ричард Янг (Fedora), Алексей Сейл (Sultan)


Описание: Третья часть невероятных похождений прославленного археолога и искателя приключений Индианы Джонса. На этот раз бесстрашный Индиана разыскивает самую таинственную реликвию в истории человечества - Святой Грааль. В этом археологу помогает его отец - профессор Джонс старший.
Теперь под бдительным оком своего отца и при помощи своих верных талисманов, неизменной шляпы и хлыста, Индиане предстоит совершить много благородных подвигов и потрясающих открытий. В новых странствиях храброму археологу доведется добыть чашу, которую держал в руках Иисус Христос и получить автограф... самого Адольфа Гитлера.


Рейтинг
kinopoisk.ru: 8.186 (43 831)
imdb.com: 8.30 (272 430)
MPAA: PG-13 - Детям до 13 лет просмотр не желателен


Качество: Blu-ray
Исходник: by Volshebnik
Формат: BDMV
Видеокодек: AVC
Аудиокодек: AC3, DTS, DTS-HD MA
Видео: MPEG-4 AVC Video / 34987 kbps / 1080p / 23,976 fps / 16:9 / High Profile 4.1
Аудио: Russian / Dolby Digital Audio / 2.0 / 48 kHz / 192 kbps / Многоголосый, Премьер Видео Фильм
Аудио: Russian / Dolby Digital Audio / 448 kbps / 5.1 / 48 kHz / 448 kbps / Многоголосый, НТВ+
Аудио: Russian / DTS Audio / 1509 kbps / 5.1 / 48 kHz / 1509 kbps / Многоголосый, Карусель
Аудио: Russian / DTS Audio / 1509 kbps / 5.1 / 48 kHz / 1509 kbps / Авторский, Гаврилов Андрей
Аудио: Russian / DTS Audio / 1509 kbps / 5.1 / 48 kHz / 1509 kbps / Авторский, Михалев Алексей
Аудио: English / DTS-HD Master Audio / 5.1 / 48 kHz / 4085 kbps / 24-bit (DTS Core: 5.1 / 48 kHz / 1509 kbps / 24-bit)




DISC INFO:

Disc Title: 3-INDIANA_JONES_BD_HDCLUB_BY_VOLSHEBNIK
Disc Size: 46 503 328 089 bytes
Protection: AACS
BD-Java: Yes
BDInfo: 0.5.6

PLAYLIST REPORT:

Name: 00800.MPLS
Length: 2:06:53 (h:m:s)
Size: 44 834 689 920 bytes
Total Bitrate: 47,11 Mbps

VIDEO:

Codec Bitrate Description
----- ------- -----------
MPEG-4 AVC Video 34987 kbps 1080p / 23,976 fps / 16:9 / High Profile 4.1

AUDIO:

Codec Language Bitrate Description
----- -------- ------- -----------
DTS-HD Master Audio English 4085 kbps 5.1 / 48 kHz / 4085 kbps / 24-bit (DTS Core: 5.1 / 48 kHz / 1509 kbps / 24-bit)
DTS Audio Russian 1509 kbps 5.1 / 48 kHz / 1509 kbps / 24-bit
DTS Audio Russian 1509 kbps 5.1 / 48 kHz / 1509 kbps / 24-bit
DTS Audio Russian 1509 kbps 5.1 / 48 kHz / 1509 kbps / 24-bit
Dolby Digital Audio Russian 448 kbps 5.1 / 48 kHz / 448 kbps
Dolby Digital Audio Russian 192 kbps 2.0 / 48 kHz / 192 kbps

SUBTITLES:

Codec Language Bitrate Description
----- -------- ------- -----------
Presentation Graphics English 23,514 kbps
Presentation Graphics English 25,497 kbps
Presentation Graphics French 25,863 kbps
Presentation Graphics Russian 19,725 kbps
Presentation Graphics Spanish 17,557 kbps

FILES:

Name Time In Length Size Total Bitrate
---- ------- ------ ---- -------------
00800.M2TS 0:00:00.000 2:06:53.355 44 834 689 920 47 112












Индиана Джонс и Королевство хрустального черепа / Indiana Jones and the Kingdom of the Crystal Skull
Слоган: «In May, the adventure continues.»

Год выпуска: 2008
Страна: США
Жанр: боевик, приключения
Продолжительность: 02:02:31
Перевод:
Дублированный
Многоголосый, студия "Кравец"
Многоголосый, Киномания
Авторский, Сербин Юрий
Авторский, Гаврилов Андрей

Cубтитры: русские, украинские, английские, etc.
Навигация по главам: есть

Режиссер: Стивен Спилберг / Steven Spielberg
Сценарий: Дэвид Кепп / David Koepp, Джордж Лукас / George Lucas, Джефф Натансон / Jeff Nathanson, Филип Кауфман / Philip Kaufman
Продюсер: Фрэнк Маршалл / Frank Marshall, Кэтлин Кеннеди / Kathleen Kennedy, Джордж Лукас / George Lucas, Кристи Макоско / Kristie Macosko, Дэнис Л. Стюарт / Denis L. Stewart
Оператор: Януш Камински / Janusz Kaminski
Композитор: Джон Уильямс / John Williams

В ролях: Харрисон Форд (Indiana Jones), Кейт Бланшетт (Irina Spalko), Карен Аллен (Marion Ravenwood), Шайа ЛаБаф (Mutt Williams), Рэй Уинстон ('Mac' George Michale), Джон Хёрт (Professor Oxley), Джим Броудбент (Dean Charles Stanforth), Игорь Жижикин (Dovchenko), Дмитрий Дьяченко (Russian Suit), Илья Волох (Russian Suit), Эммануель Тодоров (Russian Soldier), Павел Личникофф (Russian Soldier)


Описание: 1957 год, разгар холодной войны. Советские солдаты, возглавляемые агентом Ириной Спалько, похищают Мэрион Рэйвенвуд - давнюю возлюбленную Индианы Джонса, ставя профессора перед выбором: бездействие и смерть Мэрион или помощь советской разведке в поисках легендарного Хрустального черепа в обмен на свободу женщины.

Рейтинг
kinopoisk.ru: 7.005 (30 939)
imdb.com: 6.40 (201 030)
MPAA: PG-13 - Детям до 13 лет просмотр не желателен


Качество: Blu-ray
Исходник: by Volshebnik
Формат: BDMV
Видеокодек: AVC
Аудиокодек: AC3, DTS, DTS-HD MA
Видео: MPEG-4 AVC Video / 31198 kbps / 1080p / 23,976 fps / 16:9 / High Profile 4.1
Аудио: Russian / Dolby Digital Audio / 448 kbps / 5.1 / 48 kHz / 640 kbps / Дублированный
Аудио: Russian / Dolby Digital Audio / 448 kbps / 5.1 / 48 kHz / 448 kbps / Многоголосый, студия "Кравец"
Аудио: Russian / Dolby Digital Audio / 448 kbps / 5.1 / 48 kHz / 448 kbps / Многоголосый, Киномания
Аудио: Russian / DTS Audio / 1509 kbps / 5.1 / 48 kHz / 1509 kbps / Авторский, Сербин Юрий
Аудио: Russian / DTS Audio / 1509 kbps / 5.1 / 48 kHz / 1509 kbps / Авторский, Гаврилов Андрей
Аудио: English / Dolby TrueHD Audio / 5.1 / 48 kHz / 1654 kbps / 16-bit (AC3 Embedded: 5.1 / 48 kHz / 640 kbps / DN -6dB)




DISC INFO:

Disc Title: 4-INDIANA_JONES_BD_HDCLUB_BY_VOLSHEBNIK
Disc Size: 44 325 812 467 bytes
Protection: AACS
BD-Java: Yes
BDInfo: 0.5.6

PLAYLIST REPORT:

Name: 00000.MPLS
Length: 2:02:32 (h:m:s)
Size: 38 249 361 408 bytes
Total Bitrate: 41,62 Mbps

VIDEO:

Codec Bitrate Description
----- ------- -----------
MPEG-4 AVC Video 31198 kbps 1080p / 23,976 fps / 16:9 / High Profile 4.1

AUDIO:

Codec Language Bitrate Description
----- -------- ------- -----------
Dolby TrueHD Audio English 1654 kbps 5.1 / 48 kHz / 1654 kbps / 16-bit (AC3 Embedded: 5.1 / 48 kHz / 640 kbps / DN -6dB)
DTS Audio Russian 1509 kbps 5.1 / 48 kHz / 1509 kbps / 24-bit
DTS Audio Russian 1509 kbps 5.1 / 48 kHz / 1509 kbps / 24-bit
Dolby Digital Audio Russian 448 kbps 5.1 / 48 kHz / 448 kbps
Dolby Digital Audio Russian 448 kbps 5.1 / 48 kHz / 448 kbps
Dolby Digital Audio Russian 640 kbps 5.1 / 48 kHz / 640 kbps / DN -4dB

SUBTITLES:

Codec Language Bitrate Description
----- -------- ------- -----------
Presentation Graphics English 25,424 kbps
Presentation Graphics Arabic 12,228 kbps
Presentation Graphics Bulgarian 21,225 kbps
Presentation Graphics Croatian 20,109 kbps
Presentation Graphics Czech 19,474 kbps
Presentation Graphics Estonian 20,963 kbps
Presentation Graphics Hebrew 16,030 kbps
Presentation Graphics Hungarian 19,858 kbps
Presentation Graphics Hungarian 0,060 kbps
Presentation Graphics Icelandic 23,888 kbps
Presentation Graphics Latvian 18,248 kbps
Presentation Graphics Lithuanian 21,181 kbps
Presentation Graphics Polish 22,085 kbps
Presentation Graphics Polish 0,034 kbps
Presentation Graphics Romanian 21,133 kbps
Presentation Graphics Russian 25,406 kbps
Presentation Graphics Russian 0,133 kbps
Presentation Graphics Serbian 21,378 kbps
Presentation Graphics Slovak 20,470 kbps
Presentation Graphics Slovenian 17,461 kbps
Presentation Graphics Turkish 22,585 kbps
Presentation Graphics Turkish 0,034 kbps
Presentation Graphics Ukrainian 24,154 kbps

FILES:

Name Time In Length Size Total Bitrate
---- ------- ------ ---- -------------
00009.M2TS 0:00:00.000 2:02:32.386 38 249 361 408 41 618










[align=center]
Бонус диск / Bonus Disc
[/align]Год выпуска: 1981 - 2008
Страна: США
Жанр: Документальный
Перевод: Многоголосый, FDV (на часть бонусов)
Cубтитры: русские, английские, французские, etc.

Supplements
(часть бонусов - многоголосый перевод FDV)
• Newly produced On Set with Raiders of the Lost Ark featurettes:
- From Jungle to Desert
- From Adventure to Legend

• Making the Films featurettes:
- 1981 The Making of Raiders of the Lost Ark documentary
- The Making of Raiders of the Lost Ark
- The Making of Indiana Jones and the Temple of Doom
- The Making of Indiana Jones and the Last Crusade
- The Making of Indiana Jones and the Kingdom of the Crystal Skull

• Additional behind-the-scenes featurettes:
- The Stunts of Indiana Jones
- The Sound of Indiana Jones
- The Music of Indiana Jones
- The Light and Magic of Indiana Jones
- Raiders: The Melting Face!
- Indiana Jones and the Creepy Crawlies
- Travel with Indiana Jones: Locations
- Indy's Women: The American Film Institute Tribute
- Indy's Friends and Enemies
- Iconic Props in Indiana Jones and the Kingdom of the Crystal Skull
- The Effects of Indiana Jones and the Kingdom of the Crystal Skull
- Adventures in Post Production for Indiana Jones and the Kingdom of the Crystal Skull

• High definition trailers and teasers for each film




загрузка...
Правила, инструкции, FAQ!!!
Торрент  Добавлен [16 янв 2013, 22:51] Скачать торрент
Скачать торрент
[ Размер 885.3 КБ / Просмотров 26 ]

Статус
Проверен 
 
Размер  200.27 ГБ
Приватный: Нет (DHT включён)
.torrent скачан  1
Как залить торрент? | Как скачать Torrent? | Как смотреть и слушать онлайн?  


     Отправить личное сообщение
   
Страница 1 из 1
Показать сообщения за:  Поле сортировки  
Начать новую тему Ответить на тему

   Похожие торренты   Автор   Ответы   Просмотры   Последнее сообщение 
В этой теме нет новых непрочитанных сообщений. Скачать торрент Проверен [iPad] Индиана Джонс и Храм Судьбы / Indiana Jones and the Temple of Doom (Стивен Спилберг/Steven Spielberg) [1984, Боевик, приключения, BDRip, 1024x432] MVO

в форуме Фильмы для iPod, iPhone, iPad, Размер: 2.48 ГБ, Здоровье: 100%

Anonymous

0
12|4

32
0

14 май 2015, 00:26

Anonymous Перейти к последнему сообщению

В этой теме нет новых непрочитанных сообщений. Скачать торрент Проверен [iPad] Индиана Джонс и последний крестовый поход / Indiana Jones and the Last Crusade (Стивен Спилберг/Steven Spielberg) [1989, Боевик, приключения, BDRip, 1024x432] MVO

в форуме Фильмы для iPod, iPhone, iPad, Размер: 2.66 ГБ, Здоровье: 100%

Anonymous

0
26|4

33
2

14 май 2015, 00:26

Anonymous Перейти к последнему сообщению

В этой теме нет новых непрочитанных сообщений. Скачать торрент Индиана Джонс и Королевство xрустального черепа / Indiana Jones and the Kingdom of the Crystal Skull (Стивен Спилберг / Steven Spielberg) [2008 г., Приключения, боевик, HDRip] Dub

в форуме Приключения, Размер: 745.94 МБ, Здоровье: 100%

Anonymous

0
16|5

87
0

02 апр 2014, 12:07

Anonymous Перейти к последнему сообщению

В этой теме нет новых непрочитанных сообщений. Скачать торрент Индиана Джонс и Королевство xрустального черепа / Indiana Jones and the Kingdom of the Crystal Skull (Стивен Спилберг / Steven Spielberg) [2008 г., Приключения, боевик, HDRip]

в форуме Боевики, Размер: 2.18 ГБ, Здоровье: 100%

Anonymous

0
11|4

61
0

02 апр 2014, 08:22

Anonymous Перейти к последнему сообщению

В этой теме нет новых непрочитанных сообщений. Скачать торрент Проверен [VIDEO4PDA] Индиана Джонс - Полное собрание / Indiana Jones - QUADRILOGY (Стивен Спилберг) [1981-2008 г., боевик/приключения, DVDRip]

в форуме Видео для смартфонов и КПК, Размер: 1.49 ГБ, Здоровье: 25%

Anonymous

0
2|8

76
0

02 авг 2014, 17:03

Anonymous Перейти к последнему сообщению



Сейчас этот форум просматривают: нет зарегистрированных пользователей и гости: 2


Вы не можете начинать темы
Вы не можете отвечать на сообщения
Вы не можете редактировать свои сообщения
Вы не можете удалять свои сообщения
Вы не можете добавлять вложения

Перейти:  

!ВНИМАНИЕ!
 Ресурс не предоставляет электронные версии произведений, а занимается лишь коллекционированием и каталогизацией ссылок, присылаемых и публикуемых на форуме нашими читателями. Если вы являетесь правообладателем какого-либо представленного материала и не желаете чтобы ссылка на него находилась в нашем каталоге, свяжитесь с нами и мы незамедлительно удалим её. Файлы для обмена на трекере предоставлены пользователями сайта, и администрация не несёт ответственности за их содержание. Просьба не заливать файлы, защищенные авторскими правами, а также файлы нелегального содержания!