На всех торрентах на трекере установлена скидка на скачивание в размере 100 процентов(а).
 Возможность скачивания торрента НЕ зависит от ограничений при низком ратио, низком аплоаде, требуемом ратио или требуемом аплоаде.


Начать новую тему Ответить на тему
Статистика раздачи
Размер: 38.26 ГБ | Добавлен: 19 май 2014, 00:33 | Скачали: 2
Сидеров: 366  [0 байт/сек]    Личеров: 8  [0 байт/сек]
Пред. тема | След. тема 

Автор
Сообщение

СообщениеДобавлено: 19 май 2014, 00:33 

Mylene Farmer - Timeless 2013 Le Film (2014) Blu-Ray [1080i]

Год выпуска: 2014
Жанр: Pop

Описание фильма:
Timeless 2013 — шестой концертный тур французской певицы Милен Фармер в поддержку альбома Monkey Me.

Продолжительность: 2:06:43

Качество видео: Blu-Ray

Видеокодек: MPEG-4 AVC Video
Битрейт видео: ~26985 kbps
Размер кадра: 1920x1080 (16:9)
Аудио #1: LPCM Audio French 4608 kbps 2.0 / 96 kHz / 4608 kbps / 24-bit
Аудио #2: DTS-HD Master Audio French 8866 kbps 5.1 / 96 kHz / 8866 kbps / 24-bit (DTS Core: 6.1 / 48 kHz / 1509 kbps / 24-bit)
Треклист:
01. Prologue
02. Timeless Genesis
03. A force de…
04. Comme j’ai mal
05. C’est une belle journee
06. Monkey Me
07. Slipping away (Crier la vie) en duo avec Moby
08. Elle a dit
09. Oui mais… Non
10.Timeless Ballet
11. Mad World en duo avec Gary Jules
12. Les Mots en duo avec Gary Jules
13. Je te dis tout
14. Et pourtant…
15. Desenchantee
16. Bleu Noir
17. Diabolique mon ange
18. Sans contrefacon
19. Maman a tort
20. Je t’aime melancolie
21. XXL
22. A l’ombre
23. Inseparables
24. Rever
25. Endlessly
Disc Title: Mylene Farmer - Timeless Le Film (Blu-ray)
Disc Size: 41 086 422 659 bytes
Protection: AACS
BD-Java: No
Extras: 50Hz Content
BDInfo: 0.5.8

Notes:

BDINFO HOME:
Cinema Squid
http://www.cinemasquid.com/blu-ray/tools/bdinfo

INCLUDES FORUMS REPORT FOR:
AVS Forum Blu-ray Audio and Video Specifications Thread
http://www.avsforum.com/avs-vb/showthread.php?t=1155731

********************
PLAYLIST: 00002.MPLS
********************

<--- BEGIN FORUMS PASTE --->

Код:
Код:
                                                                                                                Total   Video
Title                                                           Codec   Length  Movie Size      Disc Size       Bitrate Bitrate Main Audio Track                          Secondary Audio Track
-----                                                           ------  ------- --------------  --------------  ------- ------- ------------------                        ---------------------
00002.MPLS                                                      AVC     2:06:43 40 523 218 944  41 086 422 659  42.64   26.99   LPCM 2.0 4608Kbps (96kHz/24-bit)          DTS-HD Master 5.1 8866Kbps (96kHz/24-bit)

Код:
Код:

DISC INFO:

Disc Title:     Mylene Farmer - Timeless Le Film (Blu-ray)
Disc Size:      41 086 422 659 bytes
Protection:     AACS
BD-Java:        No
Extras:         50Hz Content
BDInfo:         0.5.8

PLAYLIST REPORT:

Name:                   00002.MPLS
Length:                 2:06:43.120 (h:m:s.ms)
Size:                   40 523 218 944 bytes
Total Bitrate:          42.64 Mbps

VIDEO:

Codec                   Bitrate             Description
-----                   -------             -----------
MPEG-4 AVC Video        26985 kbps          1080i / 25 fps / 16:9 / High Profile 4.1

AUDIO:

Codec                           Language        Bitrate         Description
-----                           --------        -------         -----------
LPCM Audio                      French          4608 kbps       2.0 / 96 kHz / 4608 kbps / 24-bit
DTS-HD Master Audio             French          8866 kbps       5.1 / 96 kHz / 8866 kbps / 24-bit (DTS Core: 6.1 / 48 kHz / 1509 kbps / 24-bit)

FILES:

Name            Time In         Length          Size            Total Bitrate
----            -------         ------          ----            -------------
00003.M2TS      0:00:00.000     2:06:43.120     40 523 218 944  42 639

CHAPTERS:

Number          Time In         Length          Avg Video Rate  Max 1-Sec Rate  Max 1-Sec Time  Max 5-Sec Rate  Max 5-Sec Time  Max 10Sec Rate  Max 10Sec Time  Avg Frame Size  Max Frame Size  Max Frame Time
------          -------         ------          --------------  --------------  --------------  --------------  --------------  --------------  --------------  --------------  --------------  --------------
1               0:00:00.000     0:03:00.440     25 611 kbps     42 231 kbps     00:01:22.800    33 505 kbps     00:01:37.360    30 757 kbps     00:01:37.160    128 028 bytes   738 910 bytes   00:01:23.800
2               0:03:00.440     0:04:18.720     27 747 kbps     54 796 kbps     00:05:21.320    33 560 kbps     00:03:11.880    30 822 kbps     00:05:21.280    138 734 bytes   858 028 bytes   00:06:16.200
3               0:07:19.160     0:04:59.239     27 293 kbps     43 697 kbps     00:11:40.440    33 451 kbps     00:10:30.000    30 827 kbps     00:10:02.400    136 467 bytes   766 009 bytes   00:08:59.160
4               0:12:18.400     0:03:53.840     27 110 kbps     46 893 kbps     00:13:54.480    33 647 kbps     00:15:43.240    30 695 kbps     00:14:07.800    135 548 bytes   817 823 bytes   00:13:55.480
5               0:16:12.240     0:05:42.799     27 454 kbps     54 385 kbps     00:20:45.480    33 146 kbps     00:17:12.400    30 845 kbps     00:17:37.840    137 272 bytes   829 694 bytes   00:19:46.400
6               0:21:55.040     0:05:26.520     26 495 kbps     48 727 kbps     00:25:40.000    33 297 kbps     00:25:48.119    30 759 kbps     00:23:11.000    132 475 bytes   733 616 bytes   00:26:50.840
7               0:27:21.560     0:03:50.840     26 817 kbps     46 929 kbps     00:30:48.640    33 639 kbps     00:29:56.840    31 651 kbps     00:29:54.640    134 085 bytes   938 422 bytes   00:30:21.720
8               0:31:12.400     0:03:41.280     27 688 kbps     55 656 kbps     00:31:12.840    33 593 kbps     00:34:43.479    30 729 kbps     00:32:22.400    138 439 bytes   726 127 bytes   00:32:54.880
9               0:34:53.680     0:04:28.799     27 761 kbps     46 694 kbps     00:39:11.880    32 741 kbps     00:38:28.160    30 792 kbps     00:38:25.920    138 807 bytes   725 530 bytes   00:36:22.120
10              0:39:22.479     0:04:32.600     25 656 kbps     47 933 kbps     00:42:40.239    33 558 kbps     00:40:46.680    30 625 kbps     00:41:57.920    128 279 bytes   811 153 bytes   00:42:20.239
11              0:43:55.080     0:03:51.079     26 165 kbps     52 501 kbps     00:45:39.279    33 605 kbps     00:44:42.800    30 763 kbps     00:47:23.399    130 823 bytes   827 524 bytes   00:43:58.080
12              0:47:46.160     0:05:40.880     27 369 kbps     48 476 kbps     00:49:13.000    33 659 kbps     00:50:16.399    30 874 kbps     00:50:35.399    136 845 bytes   761 691 bytes   00:53:20.720
13              0:53:27.040     0:05:28.600     26 964 kbps     46 598 kbps     00:54:21.840    33 667 kbps     00:54:21.840    30 689 kbps     00:55:11.960    134 819 bytes   839 556 bytes   00:56:14.279
14              0:58:55.640     0:06:07.599     26 039 kbps     52 588 kbps     01:05:00.000    35 516 kbps     00:59:59.000    31 850 kbps     00:59:59.000    130 194 bytes   797 937 bytes   01:01:37.560
15              1:05:03.240     0:09:02.760     27 583 kbps     51 057 kbps     01:08:03.760    33 758 kbps     01:05:57.760    30 812 kbps     01:10:15.320    137 913 bytes   857 170 bytes   01:05:48.000
16              1:14:06.000     0:04:25.320     27 738 kbps     47 503 kbps     01:17:33.680    33 269 kbps     01:16:12.440    30 825 kbps     01:16:12.280    138 691 bytes   780 982 bytes   01:14:13.360
17              1:18:31.320     0:06:56.679     26 552 kbps     49 835 kbps     01:23:49.680    33 591 kbps     01:18:46.920    30 782 kbps     01:20:55.360    132 760 bytes   825 162 bytes   01:21:30.800
18              1:25:28.000     0:05:25.680     27 122 kbps     52 929 kbps     01:27:17.320    33 689 kbps     01:27:13.280    30 834 kbps     01:30:31.520    135 609 bytes   748 422 bytes   01:26:02.600
19              1:30:53.680     0:01:44.000     27 736 kbps     55 139 kbps     01:31:32.280    33 083 kbps     01:31:31.320    30 622 kbps     01:31:32.160    138 682 bytes   820 284 bytes   01:31:59.720
20              1:32:37.680     0:04:52.319     28 029 kbps     43 367 kbps     01:34:16.560    33 425 kbps     01:32:44.480    30 834 kbps     01:32:44.360    140 145 bytes   740 802 bytes   01:33:12.720
21              1:37:30.000     0:01:42.000     27 860 kbps     42 208 kbps     01:39:02.400    32 377 kbps     01:39:02.320    28 936 kbps     01:39:01.320    139 300 bytes   745 419 bytes   01:39:03.560
22              1:39:12.000     0:04:42.600     27 838 kbps     47 789 kbps     01:39:37.800    33 715 kbps     01:39:27.520    30 800 kbps     01:40:13.800    139 188 bytes   737 821 bytes   01:42:31.400
23              1:43:54.600     0:07:19.760     27 207 kbps     52 027 kbps     01:49:16.560    33 755 kbps     01:48:13.200    30 875 kbps     01:49:16.560    136 033 bytes   846 474 bytes   01:50:47.440
24              1:51:14.360     0:04:48.239     27 902 kbps     49 831 kbps     01:51:14.480    33 648 kbps     01:54:01.560    30 794 kbps     01:53:25.760    139 509 bytes   754 327 bytes   01:54:51.520
25              1:56:02.600     0:06:42.039     27 503 kbps     46 436 kbps     01:58:40.120    33 429 kbps     01:56:33.760    30 771 kbps     01:56:33.840    137 517 bytes   777 431 bytes   02:02:07.920
26              2:02:44.640     0:03:58.479     21 572 kbps     45 224 kbps     02:03:56.560    33 370 kbps     02:03:56.560    30 346 kbps     02:04:18.360    107 880 bytes   688 211 bytes   02:04:06.960

STREAM DIAGNOSTICS:

File            PID             Type            Codec           Language                Seconds                 Bitrate                 Bytes           Packets
----            ---             ----            -----           --------                --------------          --------------          -------------   -----
00003.M2TS      4113 (0x1011)   0x1B            AVC                                     7602.960                26 986                  25 646 564 896  139 494 888
00003.M2TS      4352 (0x1100)   0x80            LPCM            fra (French)            7602.960                4 613                   4 384 464 448   24 324 352
00003.M2TS      4353 (0x1101)   0x86            DTS-HD MA       fra (French)            7602.960                8 866                   8 426 114 276   46 984 466


<---- END FORUMS PASTE ---->

QUICK SUMMARY:

Disc Title: Mylene Farmer - Timeless Le Film (Blu-ray)
Disc Size: 41 086 422 659 bytes
Protection: AACS
BD-Java: No
Playlist: 00002.MPLS
Size: 40 523 218 944 bytes
Length: 2:06:43.120
Total Bitrate: 42.64 Mbps
Video: MPEG-4 AVC Video / 26985 kbps / 1080i / 25 fps / 16:9 / High Profile 4.1
Audio: French / LPCM Audio / 2.0 / 96 kHz / 4608 kbps / 24-bit
Audio: French / DTS-HD Master Audio / 5.1 / 96 kHz / 8866 kbps / 24-bit (DTS Core: 6.1 / 48 kHz / 1509 kbps / 24-bit)

********************
PLAYLIST: 00003.MPLS
********************

<--- BEGIN FORUMS PASTE --->

Код:
Код:
                                                                                                                Total   Video
Title                                                           Codec   Length  Movie Size      Disc Size       Bitrate Bitrate Main Audio Track                          Secondary Audio Track
-----                                                           ------  ------- --------------  --------------  ------- ------- ------------------                        ---------------------
00003.MPLS                                                      AVC     2:06:41 40 522 685 184  41 086 422 659  42.65   26.99   LPCM 2.0 4608Kbps (96kHz/24-bit)          DTS-HD Master 5.1 8867Kbps (96kHz/24-bit)

Код:
Код:

DISC INFO:

Disc Title:     Mylene Farmer - Timeless Le Film (Blu-ray)
Disc Size:      41 086 422 659 bytes
Protection:     AACS
BD-Java:        No
Extras:         50Hz Content
BDInfo:         0.5.8

PLAYLIST REPORT:

Name:                   00003.MPLS
Length:                 2:06:41.360 (h:m:s.ms)
Size:                   40 522 685 184 bytes
Total Bitrate:          42.65 Mbps

VIDEO:

Codec                   Bitrate             Description
-----                   -------             -----------
MPEG-4 AVC Video        26991 kbps          1080i / 25 fps / 16:9 / High Profile 4.1

AUDIO:

Codec                           Language        Bitrate         Description
-----                           --------        -------         -----------
LPCM Audio                      French          4608 kbps       2.0 / 96 kHz / 4608 kbps / 24-bit
DTS-HD Master Audio             French          8867 kbps       5.1 / 96 kHz / 8867 kbps / 24-bit (DTS Core: 6.1 / 48 kHz / 1509 kbps / 24-bit)

FILES:

Name            Time In         Length          Size            Total Bitrate
----            -------         ------          ----            -------------
00003.M2TS      0:00:00.000     2:06:41.360     40 522 685 184  42 648

CHAPTERS:

Number          Time In         Length          Avg Video Rate  Max 1-Sec Rate  Max 1-Sec Time  Max 5-Sec Rate  Max 5-Sec Time  Max 10Sec Rate  Max 10Sec Time  Avg Frame Size  Max Frame Size  Max Frame Time
------          -------         ------          --------------  --------------  --------------  --------------  --------------  --------------  --------------  --------------  --------------  --------------
1               0:00:00.000     0:03:00.440     25 611 kbps     42 231 kbps     00:01:22.800    33 505 kbps     00:01:37.360    30 757 kbps     00:01:37.160    128 028 bytes   738 910 bytes   00:01:23.800
2               0:03:00.440     0:04:18.720     27 747 kbps     54 796 kbps     00:05:21.320    33 560 kbps     00:03:11.880    30 822 kbps     00:05:21.280    138 734 bytes   858 028 bytes   00:06:16.200
3               0:07:19.160     0:04:59.239     27 293 kbps     43 697 kbps     00:11:40.440    33 451 kbps     00:10:30.000    30 827 kbps     00:10:02.400    136 467 bytes   766 009 bytes   00:08:59.160
4               0:12:18.400     0:03:53.840     27 110 kbps     46 893 kbps     00:13:54.480    33 647 kbps     00:15:43.240    30 695 kbps     00:14:07.800    135 548 bytes   817 823 bytes   00:13:55.480
5               0:16:12.240     0:05:42.799     27 454 kbps     54 385 kbps     00:20:45.480    33 146 kbps     00:17:12.400    30 845 kbps     00:17:37.840    137 272 bytes   829 694 bytes   00:19:46.400
6               0:21:55.040     0:05:26.520     26 495 kbps     48 727 kbps     00:25:40.000    33 297 kbps     00:25:48.119    30 759 kbps     00:23:11.000    132 475 bytes   733 616 bytes   00:26:50.840
7               0:27:21.560     0:03:50.840     26 817 kbps     46 929 kbps     00:30:48.640    33 639 kbps     00:29:56.840    31 651 kbps     00:29:54.640    134 085 bytes   938 422 bytes   00:30:21.720
8               0:31:12.400     0:03:41.280     27 688 kbps     55 656 kbps     00:31:12.840    33 593 kbps     00:34:43.479    30 729 kbps     00:32:22.400    138 439 bytes   726 127 bytes   00:32:54.880
9               0:34:53.680     0:04:28.799     27 761 kbps     46 694 kbps     00:39:11.880    32 741 kbps     00:38:28.160    30 792 kbps     00:38:25.920    138 807 bytes   725 530 bytes   00:36:22.120
10              0:39:22.479     0:04:32.600     25 656 kbps     47 933 kbps     00:42:40.239    33 558 kbps     00:40:46.680    30 625 kbps     00:41:57.920    128 279 bytes   811 153 bytes   00:42:20.239
11              0:43:55.080     0:03:51.079     26 165 kbps     52 501 kbps     00:45:39.279    33 605 kbps     00:44:42.800    30 763 kbps     00:47:23.399    130 823 bytes   827 524 bytes   00:43:58.080
12              0:47:46.160     0:05:40.880     27 369 kbps     48 476 kbps     00:49:13.000    33 659 kbps     00:50:16.399    30 874 kbps     00:50:35.399    136 845 bytes   761 691 bytes   00:53:20.720
13              0:53:27.040     0:05:28.600     26 964 kbps     46 598 kbps     00:54:21.840    33 667 kbps     00:54:21.840    30 689 kbps     00:55:11.960    134 819 bytes   839 556 bytes   00:56:14.279
14              0:58:55.640     0:06:07.599     26 039 kbps     52 588 kbps     01:05:00.000    35 516 kbps     00:59:59.000    31 850 kbps     00:59:59.000    130 194 bytes   797 937 bytes   01:01:37.560
15              1:05:03.240     0:09:02.760     27 583 kbps     51 057 kbps     01:08:03.760    33 758 kbps     01:05:57.760    30 812 kbps     01:10:15.320    137 913 bytes   857 170 bytes   01:05:48.000
16              1:14:06.000     0:04:25.320     27 738 kbps     47 503 kbps     01:17:33.680    33 269 kbps     01:16:12.440    30 825 kbps     01:16:12.280    138 691 bytes   780 982 bytes   01:14:13.360
17              1:18:31.320     0:06:56.679     26 552 kbps     49 835 kbps     01:23:49.680    33 591 kbps     01:18:46.920    30 782 kbps     01:20:55.360    132 760 bytes   825 162 bytes   01:21:30.800
18              1:25:28.000     0:05:25.680     27 122 kbps     52 929 kbps     01:27:17.320    33 689 kbps     01:27:13.280    30 834 kbps     01:30:31.520    135 609 bytes   748 422 bytes   01:26:02.600
19              1:30:53.680     0:01:44.000     27 736 kbps     55 139 kbps     01:31:32.280    33 083 kbps     01:31:31.320    30 622 kbps     01:31:32.160    138 682 bytes   820 284 bytes   01:31:59.720
20              1:32:37.680     0:04:52.319     28 029 kbps     43 367 kbps     01:34:16.560    33 425 kbps     01:32:44.480    30 834 kbps     01:32:44.360    140 145 bytes   740 802 bytes   01:33:12.720
21              1:37:30.000     0:01:42.000     27 860 kbps     42 208 kbps     01:39:02.400    32 377 kbps     01:39:02.320    28 936 kbps     01:39:01.320    139 300 bytes   745 419 bytes   01:39:03.560
22              1:39:12.000     0:04:42.600     27 838 kbps     47 789 kbps     01:39:37.800    33 715 kbps     01:39:27.520    30 800 kbps     01:40:13.800    139 188 bytes   737 821 bytes   01:42:31.400
23              1:43:54.600     0:07:19.760     27 207 kbps     52 027 kbps     01:49:16.560    33 755 kbps     01:48:13.200    30 875 kbps     01:49:16.560    136 033 bytes   846 474 bytes   01:50:47.440
24              1:51:14.360     0:04:48.239     27 902 kbps     49 831 kbps     01:51:14.480    33 648 kbps     01:54:01.560    30 794 kbps     01:53:25.760    139 509 bytes   754 327 bytes   01:54:51.520
25              1:56:02.600     0:06:42.039     27 503 kbps     46 436 kbps     01:58:40.120    33 429 kbps     01:56:33.760    30 771 kbps     01:56:33.840    137 517 bytes   777 431 bytes   02:02:07.920
26              2:02:44.640     0:03:56.720     21 732 kbps     45 224 kbps     02:03:56.560    33 370 kbps     02:03:56.560    30 346 kbps     02:04:18.360    108 662 bytes   688 211 bytes   02:04:06.960

STREAM DIAGNOSTICS:

File            PID             Type            Codec           Language                Seconds                 Bitrate                 Bytes           Packets
----            ---             ----            -----           --------                --------------          --------------          -------------   -----
00003.M2TS      4113 (0x1011)   0x1B            AVC                                     7602.960                26 986                  25 646 564 896  139 494 888
00003.M2TS      4352 (0x1100)   0x80            LPCM            fra (French)            7602.960                4 613                   4 384 464 448   24 324 352
00003.M2TS      4353 (0x1101)   0x86            DTS-HD MA       fra (French)            7602.960                8 866                   8 426 114 276   46 984 466


<---- END FORUMS PASTE ---->

QUICK SUMMARY:

Disc Title: Mylene Farmer - Timeless Le Film (Blu-ray)
Disc Size: 41 086 422 659 bytes
Protection: AACS
BD-Java: No
Playlist: 00003.MPLS
Size: 40 522 685 184 bytes
Length: 2:06:41.360
Total Bitrate: 42.65 Mbps
Video: MPEG-4 AVC Video / 26991 kbps / 1080i / 25 fps / 16:9 / High Profile 4.1
Audio: French / LPCM Audio / 2.0 / 96 kHz / 4608 kbps / 24-bit
Audio: French / DTS-HD Master Audio / 5.1 / 96 kHz / 8867 kbps / 24-bit (DTS Core: 6.1 / 48 kHz / 1509 kbps / 24-bit)

********************
PLAYLIST: 00005.MPLS
********************

<--- BEGIN FORUMS PASTE --->

Код:
Код:
                                                                                                                Total   Video
Title                                                           Codec   Length  Movie Size      Disc Size       Bitrate Bitrate Main Audio Track                          Secondary Audio Track
-----                                                           ------  ------- --------------  --------------  ------- ------- ------------------                        ---------------------
00005.MPLS                                                      AVC     0:01:29 343 535 616     41 086 422 659  30.59   28.01   DTS-HD Master 2.0 1097Kbps (48kHz/16-bit)

Код:
Код:

DISC INFO:

Disc Title:     Mylene Farmer - Timeless Le Film (Blu-ray)
Disc Size:      41 086 422 659 bytes
Protection:     AACS
BD-Java:        No
Extras:         50Hz Content
BDInfo:         0.5.8

PLAYLIST REPORT:

Name:                   00005.MPLS
Length:                 0:01:29.840 (h:m:s.ms)
Size:                   343 535 616 bytes
Total Bitrate:          30.59 Mbps

VIDEO:

Codec                   Bitrate             Description
-----                   -------             -----------
MPEG-4 AVC Video        28007 kbps          1080i / 25 fps / 16:9 / High Profile 4.1

AUDIO:

Codec                           Language        Bitrate         Description
-----                           --------        -------         -----------
DTS-HD Master Audio             English         1097 kbps       2.0 / 48 kHz / 1097 kbps / 16-bit (DTS Core: 2.0 / 48 kHz / 768 kbps / 16-bit)

FILES:

Name            Time In         Length          Size            Total Bitrate
----            -------         ------          ----            -------------
00005.M2TS      0:00:00.000     0:01:29.840     343 535 616     30 591

CHAPTERS:

Number          Time In         Length          Avg Video Rate  Max 1-Sec Rate  Max 1-Sec Time  Max 5-Sec Rate  Max 5-Sec Time  Max 10Sec Rate  Max 10Sec Time  Avg Frame Size  Max Frame Size  Max Frame Time
------          -------         ------          --------------  --------------  --------------  --------------  --------------  --------------  --------------  --------------  --------------  --------------
1               0:00:00.000     0:01:29.840     28 007 kbps     63 583 kbps     00:00:58.280    40 693 kbps     00:00:39.560    37 823 kbps     00:00:39.560    140 035 bytes   855 352 bytes   00:00:29.600

STREAM DIAGNOSTICS:

File            PID             Type            Codec           Language                Seconds                 Bitrate                 Bytes           Packets
----            ---             ----            -----           --------                --------------          --------------          -------------   -----
00005.M2TS      4113 (0x1011)   0x1B            AVC                                     89.680                  28 057                  314 519 062     1 710 659
00005.M2TS      4352 (0x1100)   0x86            DTS-HD MA       eng (English)           89.680                  1 098                   12 314 060      75 550


<---- END FORUMS PASTE ---->

QUICK SUMMARY:

Disc Title: Mylene Farmer - Timeless Le Film (Blu-ray)
Disc Size: 41 086 422 659 bytes
Protection: AACS
BD-Java: No
Playlist: 00005.MPLS
Size: 343 535 616 bytes
Length: 0:01:29.840
Total Bitrate: 30.59 Mbps
Video: MPEG-4 AVC Video / 28007 kbps / 1080i / 25 fps / 16:9 / High Profile 4.1
Audio: English / DTS-HD Master Audio / 2.0 / 48 kHz / 1097 kbps / 16-bit (DTS Core: 2.0 / 48 kHz / 768 kbps / 16-bit)

********************
PLAYLIST: 00004.MPLS
********************

<--- BEGIN FORUMS PASTE --->

Код:
Код:
                                                                                                                Total   Video
Title                                                           Codec   Length  Movie Size      Disc Size       Bitrate Bitrate Main Audio Track                          Secondary Audio Track
-----                                                           ------  ------- --------------  --------------  ------- ------- ------------------                        ---------------------
00004.MPLS                                                      AVC     0:00:52 209 467 392     41 086 422 659  31.74   29.06   DTS-HD Master 2.0 1137Kbps (48kHz/16-bit)

Код:
Код:

DISC INFO:

Disc Title:     Mylene Farmer - Timeless Le Film (Blu-ray)
Disc Size:      41 086 422 659 bytes
Protection:     AACS
BD-Java:        No
Extras:         50Hz Content
BDInfo:         0.5.8

PLAYLIST REPORT:

Name:                   00004.MPLS
Length:                 0:00:52.800 (h:m:s.ms)
Size:                   209 467 392 bytes
Total Bitrate:          31.74 Mbps

VIDEO:

Codec                   Bitrate             Description
-----                   -------             -----------
MPEG-4 AVC Video        29065 kbps          1080i / 25 fps / 16:9 / High Profile 4.1

AUDIO:

Codec                           Language        Bitrate         Description
-----                           --------        -------         -----------
DTS-HD Master Audio             English         1137 kbps       2.0 / 48 kHz / 1137 kbps / 16-bit (DTS Core: 2.0 / 48 kHz / 768 kbps / 16-bit)

FILES:

Name            Time In         Length          Size            Total Bitrate
----            -------         ------          ----            -------------
00004.M2TS      0:00:00.000     0:00:52.800     209 467 392     31 737

CHAPTERS:

Number          Time In         Length          Avg Video Rate  Max 1-Sec Rate  Max 1-Sec Time  Max 5-Sec Rate  Max 5-Sec Time  Max 10Sec Rate  Max 10Sec Time  Avg Frame Size  Max Frame Size  Max Frame Time
------          -------         ------          --------------  --------------  --------------  --------------  --------------  --------------  --------------  --------------  --------------  --------------
1               0:00:00.000     0:00:52.800     29 065 kbps     63 489 kbps     00:00:21.240    40 716 kbps     00:00:24.520    37 793 kbps     00:00:02.520    145 324 bytes   732 250 bytes   00:00:03.600

STREAM DIAGNOSTICS:

File            PID             Type            Codec           Language                Seconds                 Bitrate                 Bytes           Packets
----            ---             ----            -----           --------                --------------          --------------          -------------   -----
00004.M2TS      4113 (0x1011)   0x1B            AVC                                     52.640                  29 153                  191 827 915     1 043 325
00004.M2TS      4352 (0x1100)   0x86            DTS-HD MA       eng (English)           52.640                  1 140                   7 501 040       45 867


<---- END FORUMS PASTE ---->

QUICK SUMMARY:

Disc Title: Mylene Farmer - Timeless Le Film (Blu-ray)
Disc Size: 41 086 422 659 bytes
Protection: AACS
BD-Java: No
Playlist: 00004.MPLS
Size: 209 467 392 bytes
Length: 0:00:52.800
Total Bitrate: 31.74 Mbps
Video: MPEG-4 AVC Video / 29065 kbps / 1080i / 25 fps / 16:9 / High Profile 4.1
Audio: English / DTS-HD Master Audio / 2.0 / 48 kHz / 1137 kbps / 16-bit (DTS Core: 2.0 / 48 kHz / 768 kbps / 16-bit)
Скриншоты:
Дополнительные материалы: отсутствуют
загрузка...
Правила, инструкции, FAQ!!!
Торрент  Добавлен [19 май 2014, 00:33] Скачать торрент
Скачать торрент
[ Размер 98.35 КБ / Просмотров 36 ]

Статус
Проверен 
 
Размер  38.26 ГБ
Приватный: Нет (DHT включён)
.torrent скачан  2
Как залить торрент? | Как скачать Torrent? | Как смотреть и слушать онлайн?  


     Отправить личное сообщение
   
Страница 1 из 1
Показать сообщения за:  Поле сортировки  
Начать новую тему Ответить на тему

   Похожие торренты   Автор   Ответы   Просмотры   Последнее сообщение 
В этой теме нет новых непрочитанных сообщений. Скачать торрент Проверен Mylene Farmer - Timeless 2013 Le Film (2013) BDRip 1080p

в форуме Концерты (HD-Video), Размер: 11.68 ГБ, Здоровье: 100%

Anonymous

0
25|2

135
46

19 май 2014, 18:48

Anonymous Перейти к последнему сообщению

В этой теме нет новых непрочитанных сообщений. Скачать торрент Проверен Mylene Farmer: Timeless 2013 - Le Film (2013) BDRip 720p

в форуме Концерты (HD-Video), Размер: 4.37 ГБ, Здоровье: 100%

Anonymous

0
511|2

118
7

18 сен 2014, 20:07

Anonymous Перейти к последнему сообщению

В этой теме нет новых непрочитанных сообщений. Скачать торрент Проверен [TR24][BR] Mylene Farmer - Timeless - 2013 (Pop)

в форуме DTS CD / SACD-R, Размер: 1.95 ГБ, Здоровье: 100%

Anonymous

0
12|7

139
9

23 окт 2014, 19:53

Anonymous Перейти к последнему сообщению

В этой теме нет новых непрочитанных сообщений. Скачать торрент Проверен Mylene Farmer - Timeless (2013) BDRip 720p

в форуме Концерты (HD-Video), Размер: 9.2 ГБ, Здоровье: 100%

Anonymous

0
14|4

92
20

19 май 2014, 00:38

Anonymous Перейти к последнему сообщению

В этой теме нет новых непрочитанных сообщений. Скачать торрент Проверен Mylene Farmer - Timeless (2013) /Live In Lyon/ [FLAC|Lossless]<Pop>

в форуме Зарубежная музыка, Размер: 627.96 МБ, Здоровье: 100%

Гость

0
9|2

326
3

12 янв 2015, 22:04

Гость Перейти к последнему сообщению



Сейчас этот форум просматривают: нет зарегистрированных пользователей и гости: 1


Вы не можете начинать темы
Вы не можете отвечать на сообщения
Вы не можете редактировать свои сообщения
Вы не можете удалять свои сообщения
Вы не можете добавлять вложения

Перейти:  

!ВНИМАНИЕ!
 Ресурс не предоставляет электронные версии произведений, а занимается лишь коллекционированием и каталогизацией ссылок, присылаемых и публикуемых на форуме нашими читателями. Если вы являетесь правообладателем какого-либо представленного материала и не желаете чтобы ссылка на него находилась в нашем каталоге, свяжитесь с нами и мы незамедлительно удалим её. Файлы для обмена на трекере предоставлены пользователями сайта, и администрация не несёт ответственности за их содержание. Просьба не заливать файлы, защищенные авторскими правами, а также файлы нелегального содержания!