На всех торрентах на трекере установлена скидка на скачивание в размере 100 процентов(а).
 Возможность скачивания торрента НЕ зависит от ограничений при низком ратио, низком аплоаде, требуемом ратио или требуемом аплоаде.


Начать новую тему Ответить на тему
Статистика раздачи
Размер: 1.46 ГБ | Добавлен: 19 окт 2013, 18:35 | Скачали: 0
Сидеров: 0  [0 байт/сек]    Личеров: 0  [0 байт/сек]
Пред. тема | След. тема 

Автор
Сообщение

СообщениеДобавлено: 19 окт 2013, 18:35 

«Не выходи из дома. Не зови на помощь. Не пытайся вырваться»



Страна: Канада, Франция / Canadian Audio-Visual Certification Office (CAVCO), Copper Heart Entertainment...
Жанр: ужасы, триллер, детектив
Год выпуска: 2013
Продолжительность: 01:33:01

Перевод: профессиональный (дублированный)
Оригинальная аудиодорожка: нет
Cубтитры: нет

Режиссер: Винченцо Натали / Vincenzo Natali

В ролях: Эбигейл Бреслин, Питер Аутербридж, Мишель Нолден, Стивен МакХэтти, Питер ДаКуна, Элинор Цихи, Дэвид Нолл, Саманта Вайнштейн, Дэвид Хьюлетт, Сара Мэннинен...

Роли дублировали: Лиза Мартиросова, Никита Прозоровский

Описание: На первый взгляд, Лиза с её младшим братом и родителями — совершенно обыкновенная семья, ведущая спокойную, размеренную жизнь. Но никто, кроме девочки, не подозревает, что они проживают один и тот же день уже не в первый раз…






Качество: DVDRip / DVD5 R5
Формат: AVI

Видео: 720x400 (16:9), 25.000 fps, XVID ~1785 kbps avg, 0.248 bit/pixel
Аудио: Русский 48 kHz, AC3, 6 ch, 448.00 kbps Constant

Раздача от:
Общее
Полное имя : Limb.2013.D.DVDRip_[Youtracker]_by_avproh.avi
Формат : AVI
Формат/Информация : Audio Video Interleave
Размер файла : 1,46 Гбайт
Продолжительность : 1 ч. 33 м.
Общий поток : 2243 Кбит/сек
Программа кодирования : VirtualDubMod 1.5.10.3 | http://www.virtualdub-fr.org || (build 2550/release)
Библиотека кодирования : VirtualDubMod build 2550/release

Видео
Идентификатор : 0
Формат : MPEG-4 Visual
Профиль формата : Advanced Simple@L5
Параметр BVOP формата : 1
Параметр QPel формата : Нет
Параметр GMC формата : Без точки перехода
Параметр матрицы формата : Выборочная
Идентификатор кодека : XVID
Идентификатор кодека/Подсказка : XviD
Продолжительность : 1 ч. 33 м.
Битрейт : 1785 Кбит/сек
Ширина : 720 пикселей
Высота : 400 пикселей
Соотношение сторон : 16:9
Частота кадров : 25,000 кадров/сек
Цветовое пространство : YUV
Субдискретизация насыщенности : 4:2:0
Битовая глубина : 8 бит
Тип развёртки : Прогрессивная
Метод сжатия : С потерями
Бит/(Пиксели*Кадры) : 0.248
Размер потока : 1,16 Гбайт (80%)
Библиотека кодирования : XviD 73

Аудио
Идентификатор : 1
Формат : AC-3
Формат/Информация : Audio Coding 3
Расширение режима : CM (complete main)
Параметр Endianness формата : Big
Идентификатор кодека : 2000
Продолжительность : 1 ч. 33 м.
Вид битрейта : Постоянный
Битрейт : 448 Кбит/сек
Каналы : 6 каналов
Расположение каналов : Front: L C R, Side: L R, LFE
Частота : 48,0 КГц
Битовая глубина : 16 бит
Метод сжатия : С потерями
Размер потока : 298 Мбайт (20%)
Выравнивание : Разделение по промежуткам
Продолжительность промежутка : 40 мс. (1,00 видеокадр)
Время предзагрузки промежутка : 500 мс.


загрузка...
Правила, инструкции, FAQ!!!
Торрент  Добавлен [19 окт 2013, 18:35] Скачать торрент
Скачать торрент
[ Размер 15.23 КБ / Просмотров 4 ]

Статус  
 
Размер  1.46 ГБ
Приватный: Нет (DHT включён)
.torrent скачан  0
Как залить торрент? | Как скачать Torrent? | Как смотреть и слушать онлайн?  


     Отправить личное сообщение
   
Страница 1 из 1
Показать сообщения за:  Поле сортировки  
Начать новую тему Ответить на тему

   Похожие торренты   Автор   Ответы   Просмотры   Последнее сообщение 
В этой теме нет новых непрочитанных сообщений. Скачать торрент Лимб / Haunter (2013) HDRip | Лицензия

в форуме Ужасы, Размер: 743.07 МБ, Здоровье: 0%

Anonymous

0
0|0

35
0

03 фев 2014, 08:23

Anonymous Перейти к последнему сообщению

В этой теме нет новых непрочитанных сообщений. Скачать торрент Проверен Турнье Мишель - Пятница, или Тихоокеанский лимб [Герасимов Вячеслав, 2013, Приключения, 96 kbps]

в форуме Детектив и Боевики, Размер: 357.97 МБ, Здоровье: 0%

Anonymous

0
0|0

0
0

20 ноя 2016, 02:02

Anonymous Перейти к последнему сообщению

В этой теме нет новых непрочитанных сообщений. Скачать торрент Притчи 4 (2013) DVDRip | Лицензия

в форуме Детское, Семейное кино, Размер: 1.01 ГБ, Здоровье: 100%

Anonymous

0
80|2

148
257

18 фев 2014, 08:07

Anonymous Перейти к последнему сообщению

В этой теме нет новых непрочитанных сообщений. Скачать торрент Бомба [01-08 из 08] (2013) DVDRip | лицензия

в форуме Отечественные сериалы, Размер: 4.74 ГБ, Здоровье: 25%

Anonymous

0
1|4

51
1

19 дек 2013, 23:39

Anonymous Перейти к последнему сообщению

В этой теме нет новых непрочитанных сообщений. Скачать торрент Проверен Три мушкетера (2013) DVDRip | Лицензия

в форуме Приключения, Размер: 1.46 ГБ, Здоровье: 0%

Anonymous

0
0|0

182
0

11 дек 2013, 00:12

Anonymous Перейти к последнему сообщению



Сейчас этот форум просматривают: нет зарегистрированных пользователей и гости: 1


Вы не можете начинать темы
Вы не можете отвечать на сообщения
Вы не можете редактировать свои сообщения
Вы не можете удалять свои сообщения
Вы не можете добавлять вложения

Перейти:  

!ВНИМАНИЕ!
 Ресурс не предоставляет электронные версии произведений, а занимается лишь коллекционированием и каталогизацией ссылок, присылаемых и публикуемых на форуме нашими читателями. Если вы являетесь правообладателем какого-либо представленного материала и не желаете чтобы ссылка на него находилась в нашем каталоге, свяжитесь с нами и мы незамедлительно удалим её. Файлы для обмена на трекере предоставлены пользователями сайта, и администрация не несёт ответственности за их содержание. Просьба не заливать файлы, защищенные авторскими правами, а также файлы нелегального содержания!