На всех торрентах на трекере установлена скидка на скачивание в размере 100 процентов(а).
 Возможность скачивания торрента НЕ зависит от ограничений при низком ратио, низком аплоаде, требуемом ратио или требуемом аплоаде.


Начать новую тему Ответить на тему
Статистика раздачи
Размер: 1.46 ГБ | Добавлен: 19 авг 2013, 13:49 | Скачали: 0
Сидеров: 0  [0 байт/сек]    Личеров: 0  [0 байт/сек]
Пред. тема | След. тема 

Автор
Сообщение

СообщениеДобавлено: 19 авг 2013, 13:49 

Год выпуска: 2002
Страна: США
Жанр: ужасы, боевик, триллер
Продолжительность: 01:56:49
Перевод: Профессиональный (полное дублирование)
Субтитры: нет

Режиссер: Гильермо Дель Торо / Guillermo del Toro

В ролях: Уэсли Снайпс, Крис Кристофферсон, Рон Перлман, Леонор Варела, Норман Ридус, Томас Кречманн, Люк Госс, Мэтт Шульц

Описание: Трамвайчик едущий по старой улице, вполне может заставить думать, что перед нами Москва. Однако это не Москва, а Прага. Сюда Блэйд прибыл в поисках своего учителя Уистлера, которого вроде как загрызли до смерти в первой серии. Но не все так просто, после спасения Уистлера, на Блэйда вышла группа вампиров, что бы нанять его для уничтожения новой породы кровососов, которая питается исключительно "обычными" вампирами, превращая их в кошмарных человекоподобных чудовищ не боящихся ни пуль из серебра, ни колов, ни святой воды. В помощь Блэйду выделен отряд специально тренированных для охоты на самого Блэйда убийц...



Качество: HDRip
Формат: AVI
Видео кодек: XviD
Аудио кодек: AC3
Видео: 720x400 (1.80:1), 23.976 fps, XviD build 50 ~1585 kbps avg, 0.23 bit/pixel
Аудио: 48 kHz, AC3 Dolby Digital, 2/0 (L,R) ch, ~192 kbps

Раздача от:


D:Мои рипыBlade.II.2002.HDRip.by_dexter_lex.avi
General
Complete name : D:Мои рипыBlade.II.2002.HDRip.by_dexter_lex.avi
Format : AVI
Format/Info : Audio Video Interleave
File size : 1.46 GiB
Duration : 1h 56mn
Overall bit rate : 1 787 Kbps
Writing application : VirtualDubMod 1.5.10.3 | http://www.virtualdub-fr.org || (build 2550/release)
Writing library : VirtualDubMod build 2550/release
Video #0
ID : 0
Format : MPEG-4 Visual
Format profile : Advanced Simple@L5
Format settings, BVOP : 1
Format settings, QPel : No
Format settings, GMC : No warppoints
Format settings, Matrix : Custom
Codec ID : XVID
Codec ID/Hint : XviD
Duration : 1h 56mn
Bit rate : 1 585 Kbps
Width : 720 pixels
Height : 400 pixels
Display aspect ratio : 16:9
Frame rate : 23.976 fps
Color space : YUV
Chroma subsampling : 4:2:0
Bit depth : 8 bits
Scan type : Progressive
Compression mode : Lossy
Bits/(Pixel*Frame) : 0.230
Stream size : 1.29 GiB (89%)
Writing library : XviD 1.2.1 (UTC 2008-12-04)
Audio #1
ID : 1
Format : AC-3
Format/Info : Audio Coding 3
Mode extension : CM (complete main)
Codec ID : 2000
Duration : 1h 56mn
Bit rate mode : Constant
Bit rate : 192 Kbps
Channel(s) : 2 channels
Channel positions : Front: L R
Sampling rate : 48.0 KHz
Bit depth : 16 bits
Compression mode : Lossy
Stream size : 160 MiB (11%)
Alignment : Split accross interleaves
Interleave, duration : 42 ms (1.00 video frame)
Interleave, preload duration : 500 ms
загрузка...
Правила, инструкции, FAQ!!!
Торрент  Добавлен [19 авг 2013, 13:49] Скачать торрент
Скачать торрент
[ Размер 15.22 КБ / Просмотров 9 ]

Статус  
 
Размер  1.46 ГБ
Приватный: Нет (DHT включён)
.torrent скачан  0
Как залить торрент? | Как скачать Torrent? | Как смотреть и слушать онлайн?  


     Отправить личное сообщение
   
Страница 1 из 1
Показать сообщения за:  Поле сортировки  
Начать новую тему Ответить на тему

   Похожие торренты   Автор   Ответы   Просмотры   Последнее сообщение 
В этой теме нет новых непрочитанных сообщений. Скачать торрент Проверен Блэйд / Blade (1998) HDRip | D,P2,A

в форуме Ужасы, Размер: 3.32 ГБ, Здоровье: 100%

Гость

0
37|4

222
31

17 окт 2015, 18:32

Гость Перейти к последнему сообщению

В этой теме нет новых непрочитанных сообщений. Скачать торрент Блэйд 3: Троица / Blade: Trinity (2004) BDRip | UNRATED

в форуме Ужасы, Размер: 2.18 ГБ, Здоровье: 0%

Anonymous

0
0|0

108
0

13 янв 2014, 11:34

Anonymous Перейти к последнему сообщению

В этой теме нет новых непрочитанных сообщений. Скачать торрент Проверен Блэйд. Трилогия / Blade Trilogy (Стивен Норрингтон / Stephen Norrington, Гильермо дель Торо / Guillermo del Toro, Дэвид С. Гойер / David S. Goyer ) [1998-2004, США, ужасы, боевик, фэнтези, BDRip, 480p] Dub + AVO Гоблин + Original + sub (rus, eng)

в форуме Фильмы для iPod, iPhone, iPad, Размер: 5.01 ГБ, Здоровье: 100%

Anonymous

0
32|11

101
0

11 май 2015, 01:25

Anonymous Перейти к последнему сообщению

В этой теме нет новых непрочитанных сообщений. Скачать торрент Проверен (Heavy Metal) Tokyo Blade - Tokyo Blade / Night Of The Blade [Netherlands (Japan), RR 34 9883/RR 34 9826, 1985/1984] - 1983/1984, FLAC (image+.cue), lossless

в форуме Heavy, Power, Progressive (Metal), Размер: 552.29 МБ, Здоровье: 0%

Anonymous

0
0|0

4
0

11 окт 2016, 21:59

Anonymous Перейти к последнему сообщению

В этой теме нет новых непрочитанных сообщений. Скачать торрент Проверен (Heavy Metal) Ash Lee Blade (a.k.a. Cloven Blade) - Дискография (2003-2007), MP3, 128-V1 kbps

в форуме Heavy, Power, Progressive (Metal), Размер: 70.25 МБ, Здоровье: 0%

Anonymous

0
0|0

3
0

08 окт 2016, 12:54

Anonymous Перейти к последнему сообщению



Сейчас этот форум просматривают: нет зарегистрированных пользователей и гости: 1


Вы не можете начинать темы
Вы не можете отвечать на сообщения
Вы не можете редактировать свои сообщения
Вы не можете удалять свои сообщения
Вы не можете добавлять вложения

Перейти:  

!ВНИМАНИЕ!
 Ресурс не предоставляет электронные версии произведений, а занимается лишь коллекционированием и каталогизацией ссылок, присылаемых и публикуемых на форуме нашими читателями. Если вы являетесь правообладателем какого-либо представленного материала и не желаете чтобы ссылка на него находилась в нашем каталоге, свяжитесь с нами и мы незамедлительно удалим её. Файлы для обмена на трекере предоставлены пользователями сайта, и администрация не несёт ответственности за их содержание. Просьба не заливать файлы, защищенные авторскими правами, а также файлы нелегального содержания!