На всех торрентах на трекере установлена скидка на скачивание в размере 100 процентов(а).
 Возможность скачивания торрента НЕ зависит от ограничений при низком ратио, низком аплоаде, требуемом ратио или требуемом аплоаде.


Начать новую тему Ответить на тему
Статистика раздачи
Размер: 1.46 ГБ | Добавлен: 30 июн 2013, 00:44 | Скачали: 1
Сидеров: 0  [0 байт/сек]    Личеров: 0  [0 байт/сек]
Пред. тема | След. тема 

Автор
Сообщение

СообщениеДобавлено: 30 июн 2013, 00:44 

Название: Пророчество 2
Оригинальное название: The Prophecy II
Год выхода: 1998
Жанр: мистика, ужасы, триллер
Страна: США
Продолжительность: 01:23:26
Перевод: Профессиональный (многоголосый закадровый)

Режиссер: Грег Спенс / Greg Spence

В фильме снимались: Кристофер Уокен, Расселл Вонг, Дженнифер Билз, Бриттэни Мерфи, Гленн Дэнзиг, Эрик Робертс

Вкратце:
Война за небеса далека от окончания. Габриэль, самый могущественный из ангелов господних, возвращается на землю. Он не может похвастаться тем, что его положение достаточно прочно, и что армия ангелов ему беспрекословно подчиняется. Его страшная миссия — разрушить и уничтожить самое ценное творение Господа — человечество.



Кодек: AVI
Качество: HDRip [Исх.ВDRip 720p]
Видео: 720x400, 24 fps, 2049 Kbps kbps avg, 0.29 bit/pixel
Аудио: 48 kHz, AC3 Dolby Digital, 6 ch, ~448.00 kbps avg

Format : AVI
Format/Info : Audio Video Interleave
File size : 1.46 GiB
Duration : 1h 23mn
Overall bit rate : 2 506 Kbps
Writing application : VirtualDubModRus 1.5.10.2 (build 2542/release)
Writing library : VirtualDubMod build 2542/release

Video
ID : 0
Format : MPEG-4 Visual
Format profile : Advanced Simple@L5
Format settings, BVOP : 1
Format settings, QPel : No
Format settings, GMC : No warppoints
Format settings, Matrix : Default (MPEG)
Codec ID : XVID
Codec ID/Hint : XviD
Duration : 1h 23mn
Bit rate : 2 049 Kbps
Width : 720 pixels
Height : 400 pixels
Display aspect ratio : 16:9
Frame rate : 24.000 fps
Color space : YUV
Chroma subsampling : 4:2:0
Bit depth : 8 bits
Scan type : Progressive
Compression mode : Lossy
Bits/(Pixel*Frame) : 0.296
Stream size : 1.19 GiB (82%)
Writing library : XviD 1.2.1 (UTC 2008-12-04)

Audio
ID : 1
Format : AC-3
Format/Info : Audio Coding 3
Mode extension : CM (complete main)
Format settings, Endianness : Big
Codec ID : 2000
Duration : 1h 23mn
Bit rate mode : Constant
Bit rate : 448 Kbps
Channel(s) : 6 channels
Channel positions : Front: L C R, Side: L R, LFE
Sampling rate : 48.0 KHz
Bit depth : 16 bits
Compression mode : Lossy
Stream size : 267 MiB (18%)
Alignment : Split accross interleaves
Interleave, duration : 42 ms (1.00 video frame)
Interleave, preload duration : 500 ms

загрузка...
Правила, инструкции, FAQ!!!
Торрент  Добавлен [30 июн 2013, 00:44] Скачать торрент
Скачать торрент
[ Размер 15.16 КБ / Просмотров 10 ]

Статус  
 
Размер  1.46 ГБ
Приватный: Нет (DHT включён)
.torrent скачан  1
Как залить торрент? | Как скачать Torrent? | Как смотреть и слушать онлайн?  


     Отправить личное сообщение
   
Страница 1 из 1
Показать сообщения за:  Поле сортировки  
Начать новую тему Ответить на тему

   Похожие торренты   Автор   Ответы   Просмотры   Последнее сообщение 
В этой теме нет новых непрочитанных сообщений. Скачать торрент Пророчество 5: Спасение / Пророчество: покинутые / The Prophecy V: Forsaken / The Prophecy 5 (Джоэль Суассон / Joel Soisson) [2005, религия, мистика, ужасы, DVDRip]

в форуме Ужасы, Размер: 745.98 МБ, Здоровье: 100%

Anonymous

0
5|2

114
5

22 апр 2014, 11:40

Anonymous Перейти к последнему сообщению

В этой теме нет новых непрочитанных сообщений. Скачать торрент Проверен Каена: Пророчество / Kaena: La prophetie / Kaena: The Prophecy (2003) HDRip 720p

в форуме Зарубежные мультфильмы (HD Video), Размер: 2.89 ГБ, Здоровье: 100%

Anonymous

0
18|5

106
228

10 июл 2014, 23:11

Anonymous Перейти к последнему сообщению

В этой теме нет новых непрочитанных сообщений. Скачать торрент Проверен Пророчество / The Prophecy (1995-2000) BDRip [720p] [Трилогия]

в форуме Трилогии, Размер: 20.18 ГБ, Здоровье: 81%

Anonymous

0
35|43

173
1

10 ноя 2014, 23:22

Anonymous Перейти к последнему сообщению

В этой теме нет новых непрочитанных сообщений. Скачать торрент Проверен Исполнитель желаний 4: Пророчество сбылось / Wishmaster 4: The Prophecy Fulfilled (2002) WEB-DL 720p | P

в форуме 720p | 1080p, Размер: 3.33 ГБ, Здоровье: 100%

Гость

0
79|35

1577
178

13 июн 2016, 21:25

Гость Перейти к последнему сообщению

В этой теме нет новых непрочитанных сообщений. Скачать торрент Проверен (Heavy Metal) Prophecy - Prophecy - 1984, MP3, 320 kbps

в форуме Heavy, Power, Progressive (Metal), Размер: 86.87 МБ, Здоровье: 0%

Anonymous

0
0|0

0
0

09 окт 2016, 12:33

Anonymous Перейти к последнему сообщению



Сейчас этот форум просматривают: нет зарегистрированных пользователей и гости: 1


Вы не можете начинать темы
Вы не можете отвечать на сообщения
Вы не можете редактировать свои сообщения
Вы не можете удалять свои сообщения
Вы не можете добавлять вложения

Перейти:  

!ВНИМАНИЕ!
 Ресурс не предоставляет электронные версии произведений, а занимается лишь коллекционированием и каталогизацией ссылок, присылаемых и публикуемых на форуме нашими читателями. Если вы являетесь правообладателем какого-либо представленного материала и не желаете чтобы ссылка на него находилась в нашем каталоге, свяжитесь с нами и мы незамедлительно удалим её. Файлы для обмена на трекере предоставлены пользователями сайта, и администрация не несёт ответственности за их содержание. Просьба не заливать файлы, защищенные авторскими правами, а также файлы нелегального содержания!