На всех торрентах на трекере установлена скидка на скачивание в размере 100 процентов(а).
 Возможность скачивания торрента НЕ зависит от ограничений при низком ратио, низком аплоаде, требуемом ратио или требуемом аплоаде.


Начать новую тему Ответить на тему
Статистика раздачи
Размер: 1.46 ГБ | Добавлен: 30 июн 2013, 00:38 | Скачали: 0
Сидеров: 0  [0 байт/сек]    Личеров: 0  [0 байт/сек]
Пред. тема | След. тема 

Автор
Сообщение

СообщениеДобавлено: 30 июн 2013, 00:38 

Название: Пророчество
Оригинальное название: The Prophecy
Год выхода: 1995
Жанр: Ужасы, Мистика, Триллер
Режиссер: Грегори Уайден / Gregory Widen

В фильме снимались: Кристофер Уокен, Элиас Котеас, Вирджиния Мэдсен, Эрик Штолц, Эдам Голдберг, Стив Хитнер, Дж. С. Куинн, Морайа Шайнинг-Дав Снайдер, Аманда Пламмер, Вигго Мортенсен

Вкратце:
Первая война ангелов против Бога, который отдал свою любовь людям, закончилась поражением мятежников. Но никто не знал, что архангел Гавриил развязал и вторую, которая до сих пор не окончена. Своим секретным оружием Гавриил решил избрать самих людей - ну кто кроме них лучше поднаторел в войне, обмане и т.д.? И вот он ищет на Земле самую черную душу... Самая черная душа оказалась у некого полковника, ранее служившего в Корее и прославившегося там своими зверствами. Но и лояльные Богу ангелы не сидят сложа руки. Ангел Симон отправляется на Землю, чтобы спрятать черную душу полковника (он как раз преставился). Гавриил идет по пятам... Начинают погибать "люди", вернее ангелы. Со стороны полиции подключается некий Томас, который ранее хотел стать священником, но прямо на посвящении круто изменил свое решение. Он-то и поставил все кусочки мозаики на место и понял истинные мотивы участников. А тем временем Симон успевает "вселить" душу полковника в девочку и геройски сложить голову под пытками Гавриила, так и не признавшись в местоположении вышеозначенной души. Но Гавриил тоже не лыком шит, не зря архангел. Он докапывается до истины и назревает великая битва, исходом которой станет дальнейшая судьба человечества. Как ни странно, в ней живейшее участие принял и сам Люцифер, причем не на стороне архангела...

Страна: США
Студия: First Look International, NEO Motion Pictures, Overseas FilmGroup
Продолжительность: 01:37:45
Перевод: Профессиональный (многоголосый закадровый) МиксМедиа


Кодек: Xvid
Качество: HDRip c |BDRip 1080p|
Видео: 720x304, 23,976 fps, ~1932 kbps
Звук: AC3, 2 ch, 192.00 kbps
Общее
Полное имя : prorochstvo.1995.HDRip.avi
Формат : AVI
Формат/Информация : Audio Video Interleave
Размер файла : 1,46 Гбайт
Продолжительность : 1 ч. 37 м.
Общий поток : 2132 Кбит/сек
Программа кодирования : VirtualDubMod 1.5.10.2 (build 2542/release)
Библиотека кодирования : VirtualDubMod build 2542/release

Видео
Идентификатор : 0
Формат : MPEG-4 Visual
Профиль формата : Advanced Simple@L5
Параметр BVOP формата : 1
Параметр QPel формата : Нет
Параметр GMC формата : Без точки перехода
Параметр матрицы формата : Выборочная
Идентификатор кодека : XVID
Идентификатор кодека/Подсказка : XviD
Продолжительность : 1 ч. 37 м.
Битрейт : 1932 Кбит/сек
Ширина : 720 пикс.
Высота : 304 пикс.
Соотношение сторон : 2,35:1
Частота кадров : 23,976 кадр/сек
Цветовое пространство : YUV
Подвыборка цветности : 4:2:0
Битовая глубина : 8 бит
Тип развёртки : Прогрессивная
Метод сжатия : С потерями
Бит/(Пиксели*Кадры) : 0.368
Размер потока : 1,32 Гбайт (91%)
Библиотека кодирования : XviD 73

Аудио
Идентификатор : 1
Формат : AC-3
Формат/Информация : Audio Coding 3
Расширение режима : CM (complete main)
Идентификатор кодека : 2000
Продолжительность : 1 ч. 37 м.
Вид битрейта : Постоянный
Битрейт : 192 Кбит/сек
Канал(ы) : 2 канала(ов)
Расположение каналов : Front: L R
Частота : 48,0 КГц
Битовая глубина : 16 бит
Метод сжатия : С потерями
Размер потока : 133 Мбайт (9%)
Выравнивание : Разделение по промежуткам
Продолжительность промежутка : 42 мс. (1,01 видеокадр)
Время предзагрузки промежутка : 500 ms


Релиз от: Leon-masl
загрузка...
Правила, инструкции, FAQ!!!
Торрент  Добавлен [30 июн 2013, 00:38] Скачать торрент
Скачать торрент
[ Размер 15.2 КБ / Просмотров 5 ]

Статус  
 
Размер  1.46 ГБ
Приватный: Нет (DHT включён)
.torrent скачан  0
Как залить торрент? | Как скачать Torrent? | Как смотреть и слушать онлайн?  


     Отправить личное сообщение
   
Страница 1 из 1
Показать сообщения за:  Поле сортировки  
Начать новую тему Ответить на тему

   Похожие торренты   Автор   Ответы   Просмотры   Последнее сообщение 
В этой теме нет новых непрочитанных сообщений. Скачать торрент Пророчество 5: Спасение / Пророчество: покинутые / The Prophecy V: Forsaken / The Prophecy 5 (Джоэль Суассон / Joel Soisson) [2005, религия, мистика, ужасы, DVDRip]

в форуме Ужасы, Размер: 745.98 МБ, Здоровье: 100%

Anonymous

0
5|2

114
5

22 апр 2014, 11:40

Anonymous Перейти к последнему сообщению

В этой теме нет новых непрочитанных сообщений. Скачать торрент Проверен Пророчество / The Prophecy (1995-2000) BDRip [720p] [Трилогия]

в форуме Трилогии, Размер: 20.18 ГБ, Здоровье: 81%

Anonymous

0
35|43

173
1

10 ноя 2014, 23:22

Anonymous Перейти к последнему сообщению

В этой теме нет новых непрочитанных сообщений. Скачать торрент Проверен Каена: Пророчество / Kaena: La prophetie / Kaena: The Prophecy (2003) HDRip 720p

в форуме Зарубежные мультфильмы (HD Video), Размер: 2.89 ГБ, Здоровье: 100%

Anonymous

0
18|5

106
228

10 июл 2014, 23:11

Anonymous Перейти к последнему сообщению

В этой теме нет новых непрочитанных сообщений. Скачать торрент Проверен Исполнитель желаний 4: Пророчество сбылось / Wishmaster 4: The Prophecy Fulfilled (2002) WEB-DL 720p | P

в форуме 720p | 1080p, Размер: 3.33 ГБ, Здоровье: 100%

Гость

0
79|35

1599
178

13 июн 2016, 21:25

Гость Перейти к последнему сообщению

В этой теме нет новых непрочитанных сообщений. Скачать торрент Проверен (Heavy Metal) Prophecy - Prophecy - 1984, MP3, 320 kbps

в форуме Heavy, Power, Progressive (Metal), Размер: 86.87 МБ, Здоровье: 0%

Anonymous

0
0|0

1
0

09 окт 2016, 12:33

Anonymous Перейти к последнему сообщению



Сейчас этот форум просматривают: нет зарегистрированных пользователей и гости: 1


Вы не можете начинать темы
Вы не можете отвечать на сообщения
Вы не можете редактировать свои сообщения
Вы не можете удалять свои сообщения
Вы не можете добавлять вложения

Перейти:  

!ВНИМАНИЕ!
 Ресурс не предоставляет электронные версии произведений, а занимается лишь коллекционированием и каталогизацией ссылок, присылаемых и публикуемых на форуме нашими читателями. Если вы являетесь правообладателем какого-либо представленного материала и не желаете чтобы ссылка на него находилась в нашем каталоге, свяжитесь с нами и мы незамедлительно удалим её. Файлы для обмена на трекере предоставлены пользователями сайта, и администрация не несёт ответственности за их содержание. Просьба не заливать файлы, защищенные авторскими правами, а также файлы нелегального содержания!