На всех торрентах на трекере установлена скидка на скачивание в размере 100 процентов(а).
 Возможность скачивания торрента НЕ зависит от ограничений при низком ратио, низком аплоаде, требуемом ратио или требуемом аплоаде.


Начать новую тему Ответить на тему
Статистика раздачи
Размер: 1.46 ГБ | Добавлен: 03 май 2013, 22:17 | Скачали: 0
Сидеров: 0  [0 байт/сек]    Личеров: 0  [0 байт/сек]
Пред. тема | След. тема 

Автор
Сообщение

СообщениеДобавлено: 03 май 2013, 22:17 

Страна: США
Жанр: Ужасы, боевик, триллер
Год выпуска: 1998
Продолжительность: 02:00:16

Перевод: Профессиональный (дублированный)
Cубтитры: нет

Режиссер: Стивен Норрингтон / Stephen Norrington

В фильме снимались: Уэсли Снайпс, Стивен Дорфф, Крис Кристофферсон, Н`Буш Райт, Донал Лог, Удо Кир, Арли Джовер, Трейси Лордс, Кевин Патрик Уоллс, Санаа Лэтэн

Вкратце: Боевик ужасов по персонажам комиксов, созданным Марвом Вулфмэном и Джином Голаном. Блэйд родился от чернокожей матери, укушенной вампиром на исходе беременности. Поэтому он стал существом, обладающим силой вампира, но не боящимся дневного света. У него сохранилась человеческая душа, в которой горела ненависть к упырям, убившим его мать. Тринадцатилетним мальчишкой его нашел Уистлер и отучил питаться кровью бродяг, дав ему вакцину, утоляющую жажду крови. Блэйд вырос и стал охотником на вампиров. Его основная цель - Дикон Фрост, лидер молодого поколения вампиров, собирающийся вызвать древнего кровавого бога, чтобы полностью уничтожить человеческую расу. Для этого Фросту необходима кровь "избранного", и этот избранный - Блэйд. Блэйд спасает после очередного побоища в больнице Кэрен, девушку-врача, специалистку по крови, укушенную одним из вампиров. Уистлер делает ей укол чесночной эссенции, и, избежав трансформации, она помогает создать препарат против врагов рода человеческого. Блэйд должен убить Фроста, а тот намерен взять Блэйда живым, ведь ему нужна его кровь для древней церемонии. Кто победит?

Качество: HDRip
Формат: AVI
Видео кодек: XviD
Аудио кодек: AC3
Видео: 720x304 (2.37:1), 23.976 fps, XviD build 73 ~1344 kbps avg, 0.26 bit/pixel
Аудио: 48 kHz, AC3 Dolby Digital, 3/2 (L,C,R,l,r) + LFE ch, ~384 kbps

Раздача от:


D:Blade.1998.HDRip. 1,45 [YTN] by dexter lex.avi
General
Complete name : D:Blade.1998.HDRip. 1,45 [YTN] by dexter lex.avi
Format : AVI
Format/Info : Audio Video Interleave
File size : 1.46 GiB
Duration : 2h 0mn
Overall bit rate : 1 737 Kbps
Writing application : VirtualDubMod 1.5.10.3 | http://www.virtualdub-fr.org || (build 2550/release)
Writing library : VirtualDubMod build 2550/release
Video #0
ID : 0
Format : MPEG-4 Visual
Format profile : Advanced Simple@L5
Format settings, BVOP : 1
Format settings, QPel : No
Format settings, GMC : No warppoints
Format settings, Matrix : Custom
Codec ID : XVID
Codec ID/Hint : XviD
Duration : 2h 0mn
Bit rate : 1 344 Kbps
Width : 720 pixels
Height : 304 pixels
Display aspect ratio : 2.37:1
Frame rate : 23.976 fps
Color space : YUV
Chroma subsampling : 4:2:0
Bit depth : 8 bits
Scan type : Progressive
Compression mode : Lossy
Bits/(Pixel*Frame) : 0.256
Stream size : 1.13 GiB (77%)
Writing library : XviD 73
Audio #1
ID : 1
Format : AC-3
Format/Info : Audio Coding 3
Mode extension : CM (complete main)
Format settings, Endianness : Big
Codec ID : 2000
Duration : 2h 0mn
Bit rate mode : Constant
Bit rate : 384 Kbps
Channel(s) : 6 channels
Channel positions : Front: L C R, Side: L R, LFE
Sampling rate : 48.0 KHz
Bit depth : 16 bits
Compression mode : Lossy
Stream size : 330 MiB (22%)
Alignment : Split accross interleaves
Interleave, duration : 42 ms (1.00 video frame)
Interleave, preload duration : 500 ms

загрузка...
Правила, инструкции, FAQ!!!
Торрент  Добавлен [03 май 2013, 22:17] Скачать торрент
Скачать торрент
[ Размер 15.21 КБ / Просмотров 4 ]

Статус  
 
Размер  1.46 ГБ
Приватный: Нет (DHT включён)
.torrent скачан  0
Как залить торрент? | Как скачать Torrent? | Как смотреть и слушать онлайн?  


     Отправить личное сообщение
   
Страница 1 из 1
Показать сообщения за:  Поле сортировки  
Начать новую тему Ответить на тему

   Похожие торренты   Автор   Ответы   Просмотры   Последнее сообщение 
В этой теме нет новых непрочитанных сообщений. Скачать торрент Проверен Блэйд / Blade (1998) HDRip | D,P2,A

в форуме Ужасы, Размер: 3.32 ГБ, Здоровье: 100%

Гость

0
37|4

220
31

17 окт 2015, 18:32

Гость Перейти к последнему сообщению

В этой теме нет новых непрочитанных сообщений. Скачать торрент Проверен Блэйд. Трилогия / Blade Trilogy (Стивен Норрингтон / Stephen Norrington, Гильермо дель Торо / Guillermo del Toro, Дэвид С. Гойер / David S. Goyer ) [1998-2004, США, ужасы, боевик, фэнтези, BDRip, 480p] Dub + AVO Гоблин + Original + sub (rus, eng)

в форуме Фильмы для iPod, iPhone, iPad, Размер: 5.01 ГБ, Здоровье: 100%

Anonymous

0
32|11

100
0

11 май 2015, 01:25

Anonymous Перейти к последнему сообщению

В этой теме нет новых непрочитанных сообщений. Скачать торрент Блэйд 3: Троица / Blade: Trinity (2004) BDRip | UNRATED

в форуме Ужасы, Размер: 2.18 ГБ, Здоровье: 0%

Anonymous

0
0|0

105
0

13 янв 2014, 11:34

Anonymous Перейти к последнему сообщению

В этой теме нет новых непрочитанных сообщений. Скачать торрент Проверен (Heavy Metal) Tokyo Blade - Tokyo Blade / Night Of The Blade [Netherlands (Japan), RR 34 9883/RR 34 9826, 1985/1984] - 1983/1984, FLAC (image+.cue), lossless

в форуме Heavy, Power, Progressive (Metal), Размер: 552.29 МБ, Здоровье: 0%

Anonymous

0
0|0

3
0

11 окт 2016, 21:59

Anonymous Перейти к последнему сообщению

В этой теме нет новых непрочитанных сообщений. Скачать торрент Проверен (Heavy Metal) Ash Lee Blade (a.k.a. Cloven Blade) - Дискография (2003-2007), MP3, 128-V1 kbps

в форуме Heavy, Power, Progressive (Metal), Размер: 70.25 МБ, Здоровье: 0%

Anonymous

0
0|0

0
0

08 окт 2016, 12:54

Anonymous Перейти к последнему сообщению



Сейчас этот форум просматривают: нет зарегистрированных пользователей и гости: 1


Вы не можете начинать темы
Вы не можете отвечать на сообщения
Вы не можете редактировать свои сообщения
Вы не можете удалять свои сообщения
Вы не можете добавлять вложения

Перейти:  

!ВНИМАНИЕ!
 Ресурс не предоставляет электронные версии произведений, а занимается лишь коллекционированием и каталогизацией ссылок, присылаемых и публикуемых на форуме нашими читателями. Если вы являетесь правообладателем какого-либо представленного материала и не желаете чтобы ссылка на него находилась в нашем каталоге, свяжитесь с нами и мы незамедлительно удалим её. Файлы для обмена на трекере предоставлены пользователями сайта, и администрация не несёт ответственности за их содержание. Просьба не заливать файлы, защищенные авторскими правами, а также файлы нелегального содержания!