На всех торрентах на трекере установлена скидка на скачивание в размере 100 процентов(а).
 Возможность скачивания торрента НЕ зависит от ограничений при низком ратио, низком аплоаде, требуемом ратио или требуемом аплоаде.


Начать новую тему Ответить на тему
Статистика раздачи
Размер: 752.53 МБ | Добавлен: 26 апр 2013, 09:38 | Скачали: 0
Сидеров: 0  [0 байт/сек]    Личеров: 0  [0 байт/сек]
Пред. тема | След. тема 

Автор
Сообщение

СообщениеДобавлено: 26 апр 2013, 09:38 

Страна: США
Жанр: ужасы, фантастика, комедия
Год выпуска: 1989
Продолжительность: 01:35:38

Перевод: Профессиональный (многоголосый закадровый) Киномания
Cубтитры: нет
Режиссер: Рон Андервуд / Ron Underwood

В фильме снимались: Кевин Бэйкон, Фред Уорд, Финн Картер, Майкл Гросс, Риба МакИнтайр, Роберт Джейн, Шарлотта Стюарт, Тони Дженаро, Ариана Ричардс, Ричард Маркус, Виктор Вонг, Саншайн Паркер, Майкл Дан Вагнер, Конрад Бахманн, Биби Беш, Джон Гудвин, Джон Паппас...

Вкратце: Сезонные разнорабочие Вэл Макки и Эрл Бассетт решают покинуть крошечный город Перфекшн, что в штате Невада, но зловещие подземные толчки мешают их отъезду.
С помощью студентки — сейсмолога они выясняют, что городок наводнен гигантскими плотоядными червями, обитающими под землей. Теперь кучке храбрецов предстоит вступить в битву с исполинскими тварями, которые решили полакомиться людьми.

Качество видео: HDRip
Формат видео: AVI
Видео кодек: XviD
Аудио кодек: MP3
Видео: 624x336 (1.86:1), 23.976 fps, XviD build 50 ~963 kbps avg, 0.19 bit/pixel
Аудио: 48 kHz, MPEG Layer 3, 2 ch, ~128.00 kbps avg


D:Дрожь Земли_Tremors [1990.BDRip.720p.2xMVO.DVO.3xAVO.Eng.Subs].avi
General
Complete name : D:Дрожь Земли_Tremors.HDRip [YTN] by dexter lex.avi
Format : AVI
Format/Info : Audio Video Interleave
File size : 753 MiB
Duration : 1h 35mn
Overall bit rate : 1 100 Kbps
Writing application : VirtualDubMod 1.5.10.3 | http://www.virtualdub-fr.org || (build 2550/release)
Writing library : VirtualDubMod build 2550/release
Video #0
ID : 0
Format : MPEG-4 Visual
Format profile : Advanced Simple@L5
Format settings, BVOP : 1
Format settings, QPel : No
Format settings, GMC : No warppoints
Format settings, Matrix : Custom
Codec ID : XVID
Codec ID/Hint : XviD
Duration : 1h 35mn
Bit rate : 963 Kbps
Width : 624 pixels
Height : 336 pixels
Display aspect ratio : 1.86:1
Frame rate : 23.976 fps
Color space : YUV
Chroma subsampling : 4:2:0
Bit depth : 8 bits
Scan type : Progressive
Compression mode : Lossy
Bits/(Pixel*Frame) : 0.192
Stream size : 659 MiB (88%)
Writing library : XviD 1.2.1 (UTC 2008-12-04)
Audio #1
ID : 1
Format : MPEG Audio
Format version : Version 1
Format profile : Layer 3
Codec ID : 55
Codec ID/Hint : MP3
Duration : 1h 35mn
Bit rate mode : Constant
Bit rate : 128 Kbps
Channel(s) : 2 channels
Sampling rate : 48.0 KHz
Compression mode : Lossy
Stream size : 87.5 MiB (12%)
Alignment : Aligned on interleaves
Interleave, duration : 42 ms (1.00 video frame)
Interleave, preload duration : 504 ms
Writing library : LAME3.99r
Encoding settings : -m s -V 4 -q 2 -lowpass 17 -b 128




загрузка...
Правила, инструкции, FAQ!!!
Торрент  Добавлен [26 апр 2013, 09:38] Скачать торрент
Скачать торрент
[ Размер 15.32 КБ / Просмотров 10 ]

Статус  
 
Размер  752.53 МБ
Приватный: Нет (DHT включён)
.torrent скачан  0
Как залить торрент? | Как скачать Torrent? | Как смотреть и слушать онлайн?  


     Отправить личное сообщение
   
Страница 1 из 1
Показать сообщения за:  Поле сортировки  
Начать новую тему Ответить на тему

   Похожие торренты   Автор   Ответы   Просмотры   Последнее сообщение 
В этой теме нет новых непрочитанных сообщений. Скачать торрент Проверен Дрожь земли 5: Кровное родство / Tremors 5: Bloodlines (2015) HDRip | L

в форуме Ужасы, Размер: 1.37 ГБ, Здоровье: 100%

Гость

0
1096|20

374
676

14 окт 2015, 22:18

Гость Перейти к последнему сообщению

В этой теме нет новых непрочитанных сообщений. Скачать торрент Проверен Дрожь земли 5: Кровное родство / Tremors 5: Bloodlines (2015) BDRip-AVC | L

в форуме Ужасы, Размер: 744.94 МБ, Здоровье: 100%

Гость

0
588|49

382
71

17 окт 2015, 18:31

Гость Перейти к последнему сообщению

В этой теме нет новых непрочитанных сообщений. Скачать торрент Проверен Дрожь земли 5: Кровное родство / Tremors 5: Bloodlines (2015) BDRip 1080p | L

в форуме 720p | 1080p, Размер: 10.16 ГБ, Здоровье: 100%

Гость

0
241|55

198
725

17 окт 2015, 18:35

Гость Перейти к последнему сообщению

В этой теме нет новых непрочитанных сообщений. Скачать торрент Проверен Мёртвые земли / The Dead Lands (2014) HDRip | BaibaKo

в форуме Боевики, Размер: 1.46 ГБ, Здоровье: 100%

Anonymous

0
4443|437

113
14880

31 май 2015, 19:25

Anonymous Перейти к последнему сообщению

В этой теме нет новых непрочитанных сообщений. Скачать торрент Хозяин морей: На краю Земли / Master and Commander: The Far Side of the World (2003) HDRip | D

в форуме Приключения, Размер: 1.45 ГБ, Здоровье: 0%

Anonymous

0
0|0

125
0

20 янв 2014, 14:21

Anonymous Перейти к последнему сообщению



Сейчас этот форум просматривают: нет зарегистрированных пользователей и гости: 2


Вы не можете начинать темы
Вы не можете отвечать на сообщения
Вы не можете редактировать свои сообщения
Вы не можете удалять свои сообщения
Вы не можете добавлять вложения

Перейти:  

!ВНИМАНИЕ!
 Ресурс не предоставляет электронные версии произведений, а занимается лишь коллекционированием и каталогизацией ссылок, присылаемых и публикуемых на форуме нашими читателями. Если вы являетесь правообладателем какого-либо представленного материала и не желаете чтобы ссылка на него находилась в нашем каталоге, свяжитесь с нами и мы незамедлительно удалим её. Файлы для обмена на трекере предоставлены пользователями сайта, и администрация не несёт ответственности за их содержание. Просьба не заливать файлы, защищенные авторскими правами, а также файлы нелегального содержания!