На всех торрентах на трекере установлена скидка на скачивание в размере 100 процентов(а).
 Возможность скачивания торрента НЕ зависит от ограничений при низком ратио, низком аплоаде, требуемом ратио или требуемом аплоаде.


Начать новую тему Ответить на тему
Статистика раздачи
Размер: 1.46 ГБ | Добавлен: 16 апр 2013, 23:27 | Скачали: 0
Сидеров: 0  [0 байт/сек]    Личеров: 0  [0 байт/сек]
Пред. тема | След. тема 

Автор
Сообщение

СообщениеДобавлено: 16 апр 2013, 23:27 

Название: Кукловоды
Оригинальное название: The Puppet Masters
Год выхода: 1994
Жанр: ужасы, фантастика, триллер
Режиссер: Стюарт Орм

В фильме снимались: Дональд Сазерленд, Эрик Тал, Джули Уорнер, Кит Дэвид, Уилл Пэттон, Ричард Белзер, Том Мэйсон, Яфет Котто, Джерри Бэммен, Сэм Андерсон

Вкратце:
Экранизация одноименного романа Р. Хайнлайна. По местному каналу новостей одного небольшого городка США проходит сообщение о том, что в окрестностях городка совершил посадку НЛО. Спустя некоторое время тот же канал опровергает высказанную ранее информацию, представляя ее как выдумку местных мальчишек.

Тем не менее, сотрудники секретной службы направляются туда для проверки сообщения и обнаруживают плохо скроенный макет космической «тарелки».

Чрезмерная любезность и гостеприимство местных жителей заставляют их задуматься о том, что же случилось на самом деле. Уверенность приходит в тот момент, когда на спине одного из жителей городка они обнаруживают странного вида существо-паразита явно неземного происхождения. Но предотвратить беду становится поздно - число людей, зараженных пришельцами, увеличивается не по дням, а по часам.


Страна: США
Продолжительность: 01:48:55
Перевод: Профессиональный (Многоголосый, закадровый)|Первый канал|

Формат: avi
Кодек: Xvid
Качество: BDRip
Видео: 720x304, 23.976 fps, 1718 Kbps
Звук: AC3, 2 ch, 192 kbps, 48.0 khz
General
Complete name : Kuklovojie.1994.BDrip.avi
Format : AVI
Format/Info : Audio Video Interleave
File size : 1.46 GiB
Duration : 1h 48mn
Overall bit rate : 1 919 Kbps
Writing application : VirtualDubMod 1.5.10.3 | http://www.virtualdub-fr.org || (build 2550/release)
Writing library : VirtualDubMod build 2550/release

Video
ID : 0
Format : MPEG-4 Visual
Format profile : Advanced Simple@L5
Format settings, BVOP : 1
Format settings, QPel : No
Format settings, GMC : No warppoints
Format settings, Matrix : Custom
Codec ID : XVID
Codec ID/Hint : XviD
Duration : 1h 48mn
Bit rate : 1 718 Kbps
Width : 720 pixels
Height : 304 pixels
Display aspect ratio : 2.35:1
Frame rate : 23.976 fps
Color space : YUV
Chroma subsampling : 4:2:0
Bit depth : 8 bits
Scan type : Progressive
Compression mode : Lossy
Bits/(Pixel*Frame) : 0.327
Stream size : 1.31 GiB (89%)
Writing library : XviD 65

Audio
ID : 1
Format : AC-3
Format/Info : Audio Coding 3
Mode extension : CM (complete main)
Format settings, Endianness : Big
Codec ID : 2000
Duration : 1h 48mn
Bit rate mode : Constant
Bit rate : 192 Kbps
Channel(s) : 2 channels
Channel positions : Front: L R
Sampling rate : 48.0 KHz
Bit depth : 16 bits
Compression mode : Lossy
Stream size : 150 MiB (10%)
Alignment : Split accross interleaves
Interleave, duration : 42 ms (1.00 video frame)
Interleave, preload duration : 500 ms


Релиз от: Leon-masl
загрузка...
Правила, инструкции, FAQ!!!
Торрент  Добавлен [16 апр 2013, 23:27] Скачать торрент
Скачать торрент
[ Размер 15.2 КБ / Просмотров 7 ]

Статус  
 
Размер  1.46 ГБ
Приватный: Нет (DHT включён)
.torrent скачан  0
Как залить торрент? | Как скачать Torrent? | Как смотреть и слушать онлайн?  


     Отправить личное сообщение
   
Страница 1 из 1
Показать сообщения за:  Поле сортировки  
Начать новую тему Ответить на тему

   Похожие торренты   Автор   Ответы   Просмотры   Последнее сообщение 
В этой теме нет новых непрочитанных сообщений. Скачать торрент Проверен Кукловоды / The Puppet Masters (1994) BDRip [1080p]

в форуме 720p | 1080p, Размер: 8.19 ГБ, Здоровье: 100%

Anonymous

0
10|2

24
0

11 июл 2014, 10:06

Anonymous Перейти к последнему сообщению

В этой теме нет новых непрочитанных сообщений. Скачать торрент Проверен (Progressive Rock/Neo-Prog) Mad Puppet - King Laurin And His Rosegarden - 1994, FLAC (image+.cue), lossless

в форуме Progressive & Art-Rock, Размер: 422.86 МБ, Здоровье: 0%

Anonymous

0
0|0

1
0

29 авг 2016, 23:46

Anonymous Перейти к последнему сообщению

В этой теме нет новых непрочитанных сообщений. Скачать торрент Проверен (Psychedelic Rock) The Fallen Angels - The Roulette Masters Part 2 Of 2 - 1968 (1994), FLAC (tracks+.cue), lossless

в форуме Progressive & Art-Rock, Размер: 205.13 МБ, Здоровье: 0%

Anonymous

0
0|0

3
0

31 авг 2016, 20:22

Anonymous Перейти к последнему сообщению

В этой теме нет новых непрочитанных сообщений. Скачать торрент Проверен Хайнлайн Роберт - Кукловоды [Сергей Кирсанов, 2005, 64 kbps]

в форуме Зарубежная фантастика, фэнтези, мистика, ужасы, Размер: 244.3 МБ, Здоровье: 0%

Anonymous

0
0|0

3
0

11 сен 2016, 11:07

Anonymous Перейти к последнему сообщению

В этой теме нет новых непрочитанных сообщений. Скачать торрент Проверен Хайнлайн Роберт - Кукловоды [Сергей Кирсанов, 2005, 160 kbps]

в форуме Зарубежная фантастика, фэнтези, мистика, ужасы, Размер: 610.6 МБ, Здоровье: 0%

Anonymous

0
0|0

2
0

11 сен 2016, 12:37

Anonymous Перейти к последнему сообщению



Сейчас этот форум просматривают: нет зарегистрированных пользователей и гости: 2


Вы не можете начинать темы
Вы не можете отвечать на сообщения
Вы не можете редактировать свои сообщения
Вы не можете удалять свои сообщения
Вы не можете добавлять вложения

Перейти:  

!ВНИМАНИЕ!
 Ресурс не предоставляет электронные версии произведений, а занимается лишь коллекционированием и каталогизацией ссылок, присылаемых и публикуемых на форуме нашими читателями. Если вы являетесь правообладателем какого-либо представленного материала и не желаете чтобы ссылка на него находилась в нашем каталоге, свяжитесь с нами и мы незамедлительно удалим её. Файлы для обмена на трекере предоставлены пользователями сайта, и администрация не несёт ответственности за их содержание. Просьба не заливать файлы, защищенные авторскими правами, а также файлы нелегального содержания!