На всех торрентах на трекере установлена скидка на скачивание в размере 100 процентов(а).
 Возможность скачивания торрента НЕ зависит от ограничений при низком ратио, низком аплоаде, требуемом ратио или требуемом аплоаде.


Начать новую тему Ответить на тему
Статистика раздачи
Размер: 2.18 ГБ | Добавлен: 10 янв 2015, 20:44 | Скачали: 31
Сидеров: 59  [0 байт/сек]    Личеров: 10  [0 байт/сек]
Пред. тема | След. тема 

Автор
Сообщение

СообщениеДобавлено: 10 янв 2015, 20:44 

Жанр: Ужасы, триллер
Год выпуска: 2007
Режиссер: Хуан Карлос Фреснадильо / Juan Carlos Fresnadillo
В ролях: Катрин МакКормак, Роберт Карлайл, Аманда Уолкер, Шахид Ахмед, Гарфилд Морган, Эмили Бичем, Бинс Эль-Балави, Джереми Реннер, Харольд Периньо мл., Роуз Бирн, Imogen Poots, Макинтош Магглтон, Меган Попьел, Идрис Эльба, Стюарт Александр, Philip Bulcock, Chris Ryman, Тристан Тейт, Уильям Мередит, Мэтт Ривз, Томас Гарви

Описание: Действие фильма происходит спустя шесть месяцев после того, как вирус ярости опустошил Лондон. Армия США восстановила порядок и заселяет город, который находился под карантином…



Страна: Великобритания, Испания
Продолжительность: 01:40:06
Перевод: Дубляж (Полный перевод, подробности см. в "Особенности релиза")

Качество видео: BDRip (Исходник: Blu-Ray Remux (1080p))
Формат видео: AVI

Видео: 720x384 (1.875), 23.976 fps, XviD, 2208 kbps avg, 0.34 bit/pixel
Аудио #1: 48 kHz, AC3 Dolby Digital, 3/2 (L,C,R,l,r) + LFE ch, ~448 kbps |DUB|
Аудио #2: 48 kHz, AC3 Dolby Digital, 3/2 (L,C,R,l,r) + LFE ch, ~448 kbps |ENG|

Семпл

Автор проекта и Rip'а - ivandubskoj

Перевод: Дубляж + вставки MVO, на НЕ переведённые места.

В данном релизе ПОЛНЫЙ РУССКИЙ ПЕРЕВОД!!! ПЕРЕВЕДЕНО И ОЗВУЧЕНО ВСЁ: название фильма, надписи...
General
Complete name : 28.Nedel.Spustya.2007.DUAL.XviD.BDRip.avi
Format : AVI
Format/Info : Audio Video Interleave
Format profile : OpenDML
File size : 2.18 GiB
Duration : 1h 40mn
Overall bit rate : 3 117 Kbps
Writing application : VirtualDubMod 1.5.10.3 (build 2550/release)
Writing library : VirtualDubMod build 2550/release

Video
ID : 0
Format : MPEG-4 Visual
Format profile : Advanced Simple@L5
Format settings, BVOP : 1
Format settings, QPel : No
Format settings, GMC : No warppoints
Format settings, Matrix : Default (MPEG)
Codec ID : XVID
Codec ID/Hint : XviD
Duration : 1h 40mn
Bit rate : 2 208 Kbps
Width : 720 pixels
Height : 384 pixels
Display aspect ratio : 1.875
Frame rate : 23.976 fps
Color space : YUV
Chroma subsampling : 4:2:0
Bit depth : 8 bits
Scan type : Progressive
Compression mode : Lossy
Bits/(Pixel*Frame) : 0.333
Stream size : 1.54 GiB (71%)
Writing library : XviD 1.2.1 (UTC 2008-12-04)

Audio #1
ID : 1
Format : AC-3
Format/Info : Audio Coding 3
Mode extension : CM (complete main)
Codec ID : 2000
Duration : 1h 40mn
Bit rate mode : Constant
Bit rate : 448 Kbps
Channel(s) : 6 channels
Channel positions : Front: L C R, Side: L R, LFE
Sampling rate : 48.0 KHz
Bit depth : 16 bits
Compression mode : Lossy
Stream size : 321 MiB (14%)
Alignment : Split accross interleaves
Interleave, duration : 64 ms (1.53 video frames)
Interleave, preload duration : 500 ms

Audio #2
ID : 2
Format : AC-3
Format/Info : Audio Coding 3
Mode extension : CM (complete main)
Codec ID : 2000
Duration : 1h 40mn
Bit rate mode : Constant
Bit rate : 448 Kbps
Channel(s) : 6 channels
Channel positions : Front: L C R, Side: L R, LFE
Sampling rate : 48.0 KHz
Bit depth : 16 bits
Compression mode : Lossy
Stream size : 321 MiB (14%)
Alignment : Split accross interleaves
Interleave, duration : 64 ms (1.53 video frames)
Interleave, preload duration : 500 ms
загрузка...
Правила, инструкции, FAQ!!!
Торрент  Добавлен [10 янв 2015, 20:44] Скачать торрент
Скачать торрент
[ Размер 11.55 КБ / Просмотров 4 ]

Статус
Проверен 
 
Размер  2.18 ГБ
Приватный: Нет (DHT включён)
.torrent скачан  31
Как залить торрент? | Как скачать Torrent? | Как смотреть и слушать онлайн?  


     Отправить личное сообщение
   
Страница 1 из 1
Показать сообщения за:  Поле сортировки  
Начать новую тему Ответить на тему

   Похожие торренты   Автор   Ответы   Просмотры   Последнее сообщение 
В этой теме нет новых непрочитанных сообщений. Скачать торрент Проверен 28 недель спустя / 28 Weeks Later (2007) BDRip 1080p

в форуме 720p | 1080p, Размер: 10.83 ГБ, Здоровье: 100%

Гость

0
37|19

29
218

10 янв 2015, 20:48

Гость Перейти к последнему сообщению

В этой теме нет новых непрочитанных сообщений. Скачать торрент Проверен Brett Stewart - 7 Weeks to 300 Sit-Ups / Бретт Стюарт - 7 недель до 300 [2012, PDF, mobi, epub, ENG]

в форуме Физкультура, фитнес, бодибилдинг, Размер: 8.83 МБ, Здоровье: 0%

Anonymous

0
0|0

6
0

04 окт 2016, 23:26

Anonymous Перейти к последнему сообщению

В этой теме нет новых непрочитанных сообщений. Скачать торрент Проверен Stewart Brett / Бретт Стюарт - 7 Weeks to 50 Pull-Ups / за семь недель до 50 подтягиваний! [2011, PDF, ENG]

в форуме Физкультура, фитнес, бодибилдинг, Размер: 10.41 МБ, Здоровье: 0%

Anonymous

0
0|0

3
0

04 окт 2016, 23:59

Anonymous Перейти к последнему сообщению

В этой теме нет новых непрочитанных сообщений. Скачать торрент Проверен [Men's Fitness] Warner J. / Уорнер Дж. - Build Big Arms in Just 8 Weeks / Накачай мышцы рук всего за 8 недель! [2013, PDF, ENG]

в форуме Физкультура, фитнес, бодибилдинг, Размер: 18.2 МБ, Здоровье: 100%

Anonymous

0
5|1

9
0

05 окт 2016, 00:30

Anonymous Перейти к последнему сообщению

В этой теме нет новых непрочитанных сообщений. Скачать торрент Проверен [Men's Fitness] Warner J. / Уорнер Джо - Build a Big Chest in Just 8 Weeks / Накачай грудные мышцы всего за 8 недель! [2013, PDF, ENG]

в форуме Физкультура, фитнес, бодибилдинг, Размер: 25.08 МБ, Здоровье: 0%

Anonymous

0
0|0

4
0

05 окт 2016, 00:07

Anonymous Перейти к последнему сообщению



Сейчас этот форум просматривают: нет зарегистрированных пользователей и гости: 1


Вы не можете начинать темы
Вы не можете отвечать на сообщения
Вы не можете редактировать свои сообщения
Вы не можете удалять свои сообщения
Вы не можете добавлять вложения

Перейти:  

!ВНИМАНИЕ!
 Ресурс не предоставляет электронные версии произведений, а занимается лишь коллекционированием и каталогизацией ссылок, присылаемых и публикуемых на форуме нашими читателями. Если вы являетесь правообладателем какого-либо представленного материала и не желаете чтобы ссылка на него находилась в нашем каталоге, свяжитесь с нами и мы незамедлительно удалим её. Файлы для обмена на трекере предоставлены пользователями сайта, и администрация не несёт ответственности за их содержание. Просьба не заливать файлы, защищенные авторскими правами, а также файлы нелегального содержания!