На всех торрентах на трекере установлена скидка на скачивание в размере 100 процентов(а).
 Возможность скачивания торрента НЕ зависит от ограничений при низком ратио, низком аплоаде, требуемом ратио или требуемом аплоаде.


Начать новую тему Ответить на тему
Статистика раздачи
Размер: 2.16 ГБ | Добавлен: 07 апр 2013, 22:25 | Скачали: 0
Сидеров: 0  [0 байт/сек]    Личеров: 0  [0 байт/сек]
Пред. тема | След. тема 

Автор
Сообщение

СообщениеДобавлено: 07 апр 2013, 22:25 

Название: Глубина
Оригинальное название: Below
Год выхода: 2002
Жанр: Ужасы, Триллер, Мистика
Режиссер: Дэвид Туи

В фильме снимались: Мэттью Дэвис, Брюс Гринвуд, Оливия Уильямс, Холт МакКэллани, Скотт Фоули, Зак Галифианакис, Джейсон Флеминг, Декстер Флетчер, Ник Чинланд, Эндрю Ховард

Вкратце:
Разгар Второй мировой войны. Американская подводная лодка «Манта», посланная на выручку оставшимся в живых членам экипажа британского плавучего госпиталя, вынуждена скрываться на глубине от шныряющих ближе к поверхности немецких субмарин. Уходя ближе к дну, подводники обнаруживают, что там, внизу, есть еще что-то - явно не нацистские судна, нечто необъяснимое и, возможно, сверхъестественное.


Страна: США
Продолжительность: 01:45:18
Перевод: Профессиональный (полное дублирование), Профессиональный (многоголосый закадровый), Профессиональный (двухголосый закадровый)

Формат: avi
Кодек: Xvid
Качество: HDRip с [BDRip 1080p]
Видео: 720x400, 23.976 fps, 2146 Kbps
Аудио 1: AC3, 2 ch, 192.00 kbps..................Профессиональный (полное дублирование)
Аудио 2: AC3, 2 ch, 192.00 kbps..................Профессиональный (многоголосый закадровый)
Аудио 3: AC3, 2 ch, 192.00 kbps..................Профессиональный (двухголосый закадровый)
Аудио 4: AC3, 2 ch, 192.00 kbps..................Eng. |отдельным файлом|
General
Complete name : GlubinaGlubina.HDRip.3xRus.avi
Format : AVI
Format/Info : Audio Video Interleave
Format profile : OpenDML
File size : 2.02 GiB
Duration : 1h 45mn
Overall bit rate : 2 747 Kbps
Writing application : VirtualDubMod 1.5.10.2 (build 2542/release)
Writing library : VirtualDubMod build 2542/release

Video
ID : 0
Format : MPEG-4 Visual
Format profile : Advanced Simple@L5
Format settings, BVOP : 1
Format settings, QPel : No
Format settings, GMC : No warppoints
Format settings, Matrix : Custom
Codec ID : XVID
Codec ID/Hint : XviD
Duration : 1h 45mn
Bit rate : 2 146 Kbps
Width : 720 pixels
Height : 400 pixels
Display aspect ratio : 16:9
Frame rate : 23.976 fps
Color space : YUV
Chroma subsampling : 4:2:0
Bit depth : 8 bits
Scan type : Progressive
Compression mode : Lossy
Bits/(Pixel*Frame) : 0.311
Stream size : 1.58 GiB (78%)
Writing library : XviD 65

Audio #1
ID : 1
Format : AC-3
Format/Info : Audio Coding 3
Mode extension : CM (complete main)
Format settings, Endianness : Big
Codec ID : 2000
Duration : 1h 45mn
Bit rate mode : Constant
Bit rate : 192 Kbps
Channel(s) : 2 channels
Channel positions : Front: L R
Sampling rate : 48.0 KHz
Bit depth : 16 bits
Compression mode : Lossy
Stream size : 145 MiB (7%)
Alignment : Split accross interleaves
Interleave, duration : 42 ms (1.00 video frame)
Interleave, preload duration : 500 ms

Audio #2
ID : 2
Format : AC-3
Format/Info : Audio Coding 3
Mode extension : CM (complete main)
Format settings, Endianness : Big
Codec ID : 2000
Duration : 1h 45mn
Bit rate mode : Constant
Bit rate : 192 Kbps
Channel(s) : 2 channels
Channel positions : Front: L R
Sampling rate : 48.0 KHz
Bit depth : 16 bits
Compression mode : Lossy
Stream size : 145 MiB (7%)
Alignment : Split accross interleaves
Interleave, duration : 42 ms (1.00 video frame)
Interleave, preload duration : 500 ms

Audio #3
ID : 3
Format : AC-3
Format/Info : Audio Coding 3
Mode extension : CM (complete main)
Format settings, Endianness : Big
Codec ID : 2000
Duration : 1h 45mn
Bit rate mode : Constant
Bit rate : 192 Kbps
Channel(s) : 2 channels
Channel positions : Front: L R
Sampling rate : 48.0 KHz
Bit depth : 16 bits
Compression mode : Lossy
Stream size : 145 MiB (7%)
Alignment : Split accross interleaves
Interleave, duration : 42 ms (1.00 video frame)
Interleave, preload duration : 500 ms

загрузка...
Правила, инструкции, FAQ!!!
Торрент  Добавлен [07 апр 2013, 22:25] Скачать торрент
Скачать торрент
[ Размер 11.49 КБ / Просмотров 11 ]

Статус  
 
Размер  2.16 ГБ
Приватный: Нет (DHT включён)
.torrent скачан  0
Как залить торрент? | Как скачать Torrent? | Как смотреть и слушать онлайн?  


     Отправить личное сообщение
   
Страница 1 из 1
Показать сообщения за:  Поле сортировки  
Начать новую тему Ответить на тему

   Похожие торренты   Автор   Ответы   Просмотры   Последнее сообщение 
В этой теме нет новых непрочитанных сообщений. Скачать торрент Проверен Глубина - Фарфор (Алексей Дунаев) [2010, Рок, HDRip]

в форуме Концерты (HD-Video), Размер: 768.79 МБ, Здоровье: 100%

Anonymous

0
1|0

0
0

23 окт 2016, 10:23

Anonymous Перейти к последнему сообщению

В этой теме нет новых непрочитанных сообщений. Скачать торрент Проверен Татьяна Зыкина - Другая Глубина [2010, Pop-Rock, HDRip 1080p]

в форуме Концерты (HD-Video), Размер: 290.99 МБ, Здоровье: 100%

Anonymous

0
1|0

3
0

23 окт 2016, 12:10

Anonymous Перейти к последнему сообщению

В этой теме нет новых непрочитанных сообщений. Скачать торрент Проверен Татьяна Зыкина - Другая Глубина [2010, Pop-Rock, HDRip 720p]

в форуме Концерты (HD-Video), Размер: 148 МБ, Здоровье: 100%

Anonymous

0
2|1

1
0

23 окт 2016, 11:21

Anonymous Перейти к последнему сообщению

В этой теме нет новых непрочитанных сообщений. Скачать торрент Предельная глубина [01-04 из 04] (2014) WEB-DLRip

в форуме Приключения, Размер: 2.08 ГБ, Здоровье: 100%

Anonymous

0
117|9

116
1485

16 апр 2014, 22:45

Anonymous Перейти к последнему сообщению

В этой теме нет новых непрочитанных сообщений. Закрыто правообладателем Сергей Лукьяненко | Глубина (2014) [FB2] Данный торрент является блокированным, причина: Закрыто правообладателем

в форуме Фантастика, фэнтези, Размер: 3.14 МБ, Здоровье: 100%

Anonymous

0
12|0

122
11

05 авг 2014, 07:45

Anonymous Перейти к последнему сообщению



Сейчас этот форум просматривают: нет зарегистрированных пользователей и гости: 1


Вы не можете начинать темы
Вы не можете отвечать на сообщения
Вы не можете редактировать свои сообщения
Вы не можете удалять свои сообщения
Вы не можете добавлять вложения

Перейти:  

!ВНИМАНИЕ!
 Ресурс не предоставляет электронные версии произведений, а занимается лишь коллекционированием и каталогизацией ссылок, присылаемых и публикуемых на форуме нашими читателями. Если вы являетесь правообладателем какого-либо представленного материала и не желаете чтобы ссылка на него находилась в нашем каталоге, свяжитесь с нами и мы незамедлительно удалим её. Файлы для обмена на трекере предоставлены пользователями сайта, и администрация не несёт ответственности за их содержание. Просьба не заливать файлы, защищенные авторскими правами, а также файлы нелегального содержания!