На всех торрентах на трекере установлена скидка на скачивание в размере 100 процентов(а).
 Возможность скачивания торрента НЕ зависит от ограничений при низком ратио, низком аплоаде, требуемом ратио или требуемом аплоаде.


Начать новую тему Ответить на тему
Статистика раздачи
Размер: 1.46 ГБ | Добавлен: 11 дек 2014, 20:23 | Скачали: 13
Сидеров: 11  [0 байт/сек]    Личеров: 0  [0 байт/сек]
Пред. тема | След. тема 

Автор
Сообщение

СообщениеДобавлено: 11 дек 2014, 20:23 

Год выпуска: 1990
Страна: США
Жанр: ужасы, триллер, комедия
Продолжительность: 01:33:20
Перевод: Профессиональный (многоголосый, закадровый) ТВ3
Субтитры: нет

Режиссер: Джон Харрисон / John Harrison

В ролях: Дебора Харри, Кристиан Слэйтер, Дэвид Джохансен, Уильям Хикки, Джеймс Римар, Рей Дон Чонг, Мэттью Лоуренс, Роберт Седжвик, Стив Бушеми, Джулианна Мур

Описание: Три короткометражных фильма по мотивам рассказов Артура Конан-Дойля, Стивена Кинга и Майкла МакДауэлла: три страшилки, которые рассказывает мальчик ведьме, что готовится его съесть, пытаясь тем самым выиграть время для своего спасения. В первом эпизоде речь идет об ожившей мумии, преследующей нескольких студентов колледжа; во втором – об адской кошке, которую невозможно убить, но которая легко может убить сама; и в третьем – о мужчине, что стал свидетелем странного убийства и поклялся никому о нем не рассказывать...



Качество: HDTVRip [Исходник HDTV 720p]
Формат: AVI
Видео кодек: XviD
Аудио кодек: AC3
Видео: 688x384 (1.79:1), 23.976 fps, XviD build 73 ~2035 kbps avg, 0.32 bit/pixel
Аудио: 48 kHz, AC3 Dolby Digital, 2/0 (L,R) ch, ~192 kbps

Раздача от:


D:Мои рипыTales.from.the.Darkside.1990.hdtvrip.dexter_lex.avi
General
Complete name : D:Мои рипыTales.from.the.Darkside.1990.hdtvrip.dexter_lex.avi
Format : AVI
Format/Info : Audio Video Interleave
File size : 1.46 GiB
Duration : 1h 33mn
Overall bit rate : 2 237 Kbps
Writing application : VirtualDubMod 1.5.10.3 | http://www.virtualdub-fr.org || (build 2550/release)
Writing library : VirtualDubMod build 2550/release
Video #0
ID : 0
Format : MPEG-4 Visual
Format profile : Advanced Simple@L5
Format settings, BVOP : 1
Format settings, QPel : No
Format settings, GMC : No warppoints
Format settings, Matrix : Custom
Codec ID : XVID
Codec ID/Hint : XviD
Duration : 1h 33mn
Bit rate : 2 036 Kbps
Width : 688 pixels
Height : 384 pixels
Display aspect ratio : 16:9
Frame rate : 23.976 fps
Color space : YUV
Chroma subsampling : 4:2:0
Bit depth : 8 bits
Scan type : Progressive
Compression mode : Lossy
Bits/(Pixel*Frame) : 0.321
Stream size : 1.33 GiB (91%)
Writing library : XviD 73
Audio #1
ID : 1
Format : AC-3
Format/Info : Audio Coding 3
Mode extension : CM (complete main)
Codec ID : 2000
Duration : 1h 33mn
Bit rate mode : Constant
Bit rate : 192 Kbps
Channel(s) : 2 channels
Channel positions : Front: L R
Sampling rate : 48.0 KHz
Bit depth : 16 bits
Compression mode : Lossy
Stream size : 128 MiB (9%)
Alignment : Split accross interleaves
Interleave, duration : 42 ms (1.00 video frame)
Interleave, preload duration : 500 ms

загрузка...
Правила, инструкции, FAQ!!!
Торрент  Добавлен [11 дек 2014, 20:23] Скачать торрент
Скачать торрент
[ Размер 15.29 КБ / Просмотров 5 ]

Статус
Проверен 
 
Размер  1.46 ГБ
Приватный: Нет (DHT включён)
.torrent скачан  13
Как залить торрент? | Как скачать Torrent? | Как смотреть и слушать онлайн?  


     Отправить личное сообщение
   
Страница 1 из 1
Показать сообщения за:  Поле сортировки  
Начать новую тему Ответить на тему

   Похожие торренты   Автор   Ответы   Просмотры   Последнее сообщение 
В этой теме нет новых непрочитанных сообщений. Скачать торрент Проверен (Heavy Metal) AXPI - SkullRoads: Tales From A Darkside - 2016, MP3, 320 kbps

в форуме Heavy, Power, Progressive (Metal), Размер: 86.81 МБ, Здоровье: 100%

Anonymous

0
2|1

0
0

09 окт 2016, 09:45

Anonymous Перейти к последнему сообщению

В этой теме нет новых непрочитанных сообщений. Скачать торрент Проверен (Progressive Metal) Tool - Tales From The Darkside (Bootleg) - 1994, FLAC (image+.cue)

в форуме Heavy, Power, Progressive (Metal), Размер: 261.97 МБ, Здоровье: 100%

Anonymous

0
1|0

0
0

11 окт 2016, 01:13

Anonymous Перейти к последнему сообщению

В этой теме нет новых непрочитанных сообщений. Скачать торрент Проверен (Experimental Rock) Tool - Tales from the Darkside (Bootleg) - 1994, MP3 (tracks), 320 kbps

в форуме Heavy, Power, Progressive (Metal), Размер: 106.57 МБ, Здоровье: 100%

Anonymous

0
1|0

0
0

09 окт 2016, 15:42

Anonymous Перейти к последнему сообщению

В этой теме нет новых непрочитанных сообщений. Скачать торрент Проверен (Alternative Rock, Hard Rock, Prog Rock) Tool - Sober - Tales From The Darkside - 1994, FLAC (tracks+.cue) lossless

в форуме Heavy, Power, Progressive (Metal), Размер: 310.96 МБ, Здоровье: 100%

Anonymous

0
1|0

0
0

11 окт 2016, 22:50

Anonymous Перейти к последнему сообщению

В этой теме нет новых непрочитанных сообщений. Скачать торрент Проверен (Heavy Metal) Black Knight (Netherlands) 1998 - 2007 (2 Albums: 1998 - Tales From The Darkside, 2007 - The Beast Inside), mp3, 192-320 kbps

в форуме Heavy, Power, Progressive (Metal), Размер: 170.52 МБ, Здоровье: 100%

Anonymous

0
1|0

0
0

09 окт 2016, 12:46

Anonymous Перейти к последнему сообщению



Сейчас этот форум просматривают: нет зарегистрированных пользователей и гости: 1


Вы не можете начинать темы
Вы не можете отвечать на сообщения
Вы не можете редактировать свои сообщения
Вы не можете удалять свои сообщения
Вы не можете добавлять вложения

Перейти:  

!ВНИМАНИЕ!
 Ресурс не предоставляет электронные версии произведений, а занимается лишь коллекционированием и каталогизацией ссылок, присылаемых и публикуемых на форуме нашими читателями. Если вы являетесь правообладателем какого-либо представленного материала и не желаете чтобы ссылка на него находилась в нашем каталоге, свяжитесь с нами и мы незамедлительно удалим её. Файлы для обмена на трекере предоставлены пользователями сайта, и администрация не несёт ответственности за их содержание. Просьба не заливать файлы, защищенные авторскими правами, а также файлы нелегального содержания!