На всех торрентах на трекере установлена скидка на скачивание в размере 100 процентов(а).
 Возможность скачивания торрента НЕ зависит от ограничений при низком ратио, низком аплоаде, требуемом ратио или требуемом аплоаде.


Начать новую тему Ответить на тему
Статистика раздачи
Размер: 1.46 ГБ | Добавлен: 10 дек 2014, 23:19 | Скачали: 1
Сидеров: 1  [0 байт/сек]    Личеров: 1  [0 байт/сек]
Пред. тема | След. тема 

Автор
Сообщение

СообщениеДобавлено: 10 дек 2014, 23:19 

Год выпуска: 1992
Производство: США
Жанр: Ужасы, Триллер
Описание фильма:
После смерти жены ветеринар Чейз Мэтьюз и его тринадцатилетний сын Джефф решают начать новую жизнь. Отец и сын переезжают в захолустный городок Ладлоу. Здесь Джефф знакомится с подростком по имени Дрю. Как выяснилось, новому приятелю Джеффа живется несладко. Над Дрю постоянно издевается его отчим — местный шериф Гас Гилберт. Однажды, когда жестокость отчима перешла все границы, он хладнокровно пристрелил любимую собаку Дрю. Теперь мальчикам предстоит похоронить пса. И они решают сделать это на старом индейском кладбище, про которое ходят жуткие легенды. Рассказывают, что если закопать на нем мертвеца, то через некоторое время он обязательно вернется.

Режиссер: Мэри Ламберт
Продюсер: Ральф С. Синглтон
Актеры: Эдвард Ферлонг, Энтони Эдвардс, Клэнси Браун, Джаред Раштон, Дарленн Флюгель, Джейсон МакГуайр, Джим Пек, Лен Хант
Перевод: Одноголосый закадровый, авторский
Автор перевода: А.Ю.Гаврилов
Язык субтитров: отсутствуют


Дата мировой премьеры: 28 августа 1992
Продолжительность: 01:40:27
Качество видео: WEB-DLRip

Видео: MPEG4, XviD, 720x400 (16:9), 23.976 fps, 1 885 Kbps (0.273 bit/pixel)
Аудио: AC-3, 48.0 KHz, 2 ch, 192 Kbps, CBR
Код:
Код:
Формат                                   : AVI
Формат/Информация                        : Audio Video Interleave
Размер файла                             : 1,46 Гбайт
Продолжительность                        : 1 ч. 40 м.
Общий поток                              : 2086 Кбит/сек
Программа кодирования                    : VirtualDubMod 1.5.10.3 | [url=http://www.virtualdub-fr.org]www.virtualdub-fr.org[/url] || (build 2550/release)
Библиотека кодирования                   : VirtualDubMod build 2550/release

Видео
Идентификатор                            : 0
Формат                                   : MPEG-4 Visual
Профиль формата                          : Advanced Simple@L5
Параметр BVOP формата                    : 1
Параметр QPel формата                    : Нет
Параметр GMC формата                     : Без точки перехода
Параметр матрицы формата                 : Default (MPEG)
Идентификатор кодека                     : XVID
Идентификатор кодека/Подсказка           : XviD
Продолжительность                        : 1 ч. 40 м.
Битрейт                                  : 1885 Кбит/сек
Ширина                                   : 720 пикселей
Высота                                   : 400 пикселей
Соотношение сторон                       : 16:9
Частота кадров                           : 23,976 кадра/сек
Цветовое пространство                    : YUV
Субдискретизация насыщенности            : 4:2:0
Битовая глубина                          : 8 бит
Тип развёртки                            : Прогрессивная
Метод сжатия                             : С потерями
Бит/(Пиксели*Кадры)                      : 0.273
Размер потока                            : 1,32 Гбайт (90%)
Библиотека кодирования                   : XviD 73

Аудио
Идентификатор                            : 1
Формат                                   : AC-3
Формат/Информация                        : Audio Coding 3
Расширение режима                        : CM (complete main)
Параметр Endianness формата              : Big
Идентификатор кодека                     : 2000
Продолжительность                        : 1 ч. 40 м.
Вид битрейта                             : Постоянный
Битрейт                                  : 192 Кбит/сек
Каналы                                   : 2 канала
Расположение каналов                     : Front: L R
Частота                                  : 48,0 КГц
Битовая глубина                          : 16 бит
Метод сжатия                             : С потерями
Размер потока                            : 138 Мбайт (9%)
Выравнивание                             : Разделение по промежуткам
Продолжительность промежутка             : 42  мс. (1,00 видеокадр)
Время предзагрузки промежутка            : 500  мс.
Скриншоты:

загрузка...
Правила, инструкции, FAQ!!!
Торрент  Добавлен [10 дек 2014, 23:19] Скачать торрент
Скачать торрент
[ Размер 15.51 КБ / Просмотров 7 ]

Статус
Проверен 
 
Размер  1.46 ГБ
Приватный: Нет (DHT включён)
.torrent скачан  1
Как залить торрент? | Как скачать Torrent? | Как смотреть и слушать онлайн?  


     Отправить личное сообщение
   
Страница 1 из 1
Показать сообщения за:  Поле сортировки  
Начать новую тему Ответить на тему

   Похожие торренты   Автор   Ответы   Просмотры   Последнее сообщение 
В этой теме нет новых непрочитанных сообщений. Скачать торрент Проверен Кладбище домашних животных / Pet Sematary (1989) BDRip

в форуме Ужасы, Размер: 2.18 ГБ, Здоровье: 100%

Гость

0
34|5

45
20

10 дек 2014, 23:23

Гость Перейти к последнему сообщению

В этой теме нет новых непрочитанных сообщений. Скачать торрент Проверен Кинг Стивен - Кладбище домашних животных [Олег Булдаков, (ЛИ), 2015 г., 192 kbps, MP3]

в форуме Фантастика, фэнтези, Размер: 1.04 ГБ, Здоровье: 100%

Гость

0
34|11

7
0

06 фев 2016, 22:35

Гость Перейти к последнему сообщению

В этой теме нет новых непрочитанных сообщений. Скачать торрент Проверен Кинг Стивен - Кладбище домашних животных [Заборовский Юрий, 2013, 96 kbps, MP3]

в форуме Зарубежная фантастика, фэнтези, мистика, ужасы, Размер: 603.61 МБ, Здоровье: 0%

Anonymous

0
0|0

0
0

11 сен 2016, 10:38

Anonymous Перейти к последнему сообщению

В этой теме нет новых непрочитанных сообщений. Скачать торрент Проверен Кинг Стивен - Кладбище домашних животных [Заборовский Юрий, 2011 г., 128 kbps, 44 kHz, Mono, MP3]

в форуме Зарубежная фантастика, фэнтези, мистика, ужасы, Размер: 958.36 МБ, Здоровье: 0%

Anonymous

0
0|0

0
0

11 сен 2016, 12:06

Anonymous Перейти к последнему сообщению

В этой теме нет новых непрочитанных сообщений. Скачать торрент Проверен Кинг Стивен - Кладбище домашних животных [Олег Булдаков (ЛИ), 2015, Мистика и Ужасы, 128 kbps]

в форуме Аудиокниги (AAC, ALAC), Размер: 717.08 МБ, Здоровье: 0%

Anonymous

0
0|0

2
0

28 авг 2016, 17:50

Anonymous Перейти к последнему сообщению



Сейчас этот форум просматривают: нет зарегистрированных пользователей и гости: 1


Вы не можете начинать темы
Вы не можете отвечать на сообщения
Вы не можете редактировать свои сообщения
Вы не можете удалять свои сообщения
Вы не можете добавлять вложения

Перейти:  

!ВНИМАНИЕ!
 Ресурс не предоставляет электронные версии произведений, а занимается лишь коллекционированием и каталогизацией ссылок, присылаемых и публикуемых на форуме нашими читателями. Если вы являетесь правообладателем какого-либо представленного материала и не желаете чтобы ссылка на него находилась в нашем каталоге, свяжитесь с нами и мы незамедлительно удалим её. Файлы для обмена на трекере предоставлены пользователями сайта, и администрация не несёт ответственности за их содержание. Просьба не заливать файлы, защищенные авторскими правами, а также файлы нелегального содержания!