На всех торрентах на трекере установлена скидка на скачивание в размере 100 процентов(а).
 Возможность скачивания торрента НЕ зависит от ограничений при низком ратио, низком аплоаде, требуемом ратио или требуемом аплоаде.


Начать новую тему Ответить на тему
Статистика раздачи
Размер: 1.36 ГБ | Добавлен: 09 ноя 2014, 09:59 | Скачали: 1
Сидеров: 0  [0 байт/сек]    Личеров: 0  [0 байт/сек]
Пред. тема | След. тема 

Автор
Сообщение

СообщениеДобавлено: 09 ноя 2014, 09:59 

Год выпуска: 2014
Производство: США, Новая Зеландия, Канада, Израиль, Япония
Жанр: Ужасы, Комедия

Режиссер: Родни Ашер, Джулиан Бэррэтт
Актеры: Хуан Мартинез Морено, Е. Л. Кэтц, Джулиан Бэррэтт, Жюльен Мори, Марвин Крен, Аарон Кешалес, Родни Ашер, Стивен Костански

Описание фильма:
26 способов умереть – ровно столько, сколько букв в английском алфавите. Фильм «Азбука смерти 2» – новый взнос в копилку ужасов, где уже есть страшные истории от первого фильма.
Новые 26 кинорежиссеров и очередные 26 случаев экранизированных ими жутких смертей – фильм снят для тех, у кого крепкие нервы. Словно детская азбука, буква за буквой триллер листает страницы энциклопедии ужаса, и будьте готовы к тому, что ваш самый страшный сон по сравнению с тем, что разворачивается на экране, покажется вам детской сказкой...

Перевод: Двуголосый закадровый
Автор перевода: [DeadSno & den904] - по переводу [chup]



Дата мировой премьеры: 18 сентября 2014

Продолжительность: 02:02:18
Качество видео: WEB-DLRip

Видеокодек: Xvid
Битрейт видео: ~1200 kb/s
Размер кадра: 720x400
Аудиокодек: AC3 5.1
Битрейт аудио: 384 kb/s
Сэмпл: Ссылка
Общее
Полное имя : E:\Фильмы\Азбука.смерти.2.2014.WEB-DLRip.avi
Формат : AVI
Формат/Информация : Audio Video Interleave
Размер файла : 1,36 Гбайт
Продолжительность : 2 ч. 2 м.
Общий поток : 1593 Кбит/сек
Программа кодирования : VirtualDubMod 1.5.10.2 (build 2542/release)
Библиотека кодирования : VirtualDubMod build 2542/release

Видео
Идентификатор : 0
Формат : MPEG-4 Visual
Профиль формата : Advanced Simple@L5
Параметр BVOP формата : 2
Параметр QPel формата : Нет
Параметр GMC формата : Без точки перехода
Параметр матрицы формата : Default (H.263)
Режим смешивания : Сжатый битовый поток
Идентификатор кодека : XVID
Идентификатор кодека/Подсказка : XviD
Продолжительность : 2 ч. 2 м.
Битрейт : 1199 Кбит/сек
Ширина : 720 пикселей
Высота : 400 пикселей
Соотношение сторон : 16:9
Частота кадров : 23,976 кадра/сек
Цветовое пространство : YUV
Субдискретизация насыщенности : 4:2:0
Битовая глубина : 8 бит
Тип развёртки : Прогрессивная
Метод сжатия : С потерями
Бит/(Пиксели*Кадры) : 0.174
Размер потока : 1,02 Гбайт (75%)
Библиотека кодирования : XviD 65

Аудио
Идентификатор : 1
Формат : AC-3
Формат/Информация : Audio Coding 3
Расширение режима : CM (complete main)
Параметр Endianness формата : Big
Идентификатор кодека : 2000
Продолжительность : 2 ч. 2 м.
Вид битрейта : Постоянный
Битрейт : 384 Кбит/сек
Каналы : 6 каналов
Расположение каналов : Front: L C R, Side: L R, LFE
Частота : 48,0 КГц
Битовая глубина : 16 бит
Метод сжатия : С потерями
Размер потока : 336 Мбайт (24%)
Выравнивание : Разделение по промежуткам
Продолжительность промежутка : 42 мс. (1,00 видеокадр)
Время предзагрузки промежутка : 500 мс.
Скриншоты:
загрузка...
Правила, инструкции, FAQ!!!
Торрент  Добавлен [09 ноя 2014, 09:59] Скачать торрент
Скачать торрент
[ Размер 14.32 КБ / Просмотров 7 ]

Статус
Проверен 
 
Размер  1.36 ГБ
Приватный: Нет (DHT включён)
.torrent скачан  1
Как залить торрент? | Как скачать Torrent? | Как смотреть и слушать онлайн?  


     Отправить личное сообщение
   
Страница 1 из 1
Показать сообщения за:  Поле сортировки  
Начать новую тему Ответить на тему

   Похожие торренты   Автор   Ответы   Просмотры   Последнее сообщение 
В этой теме нет новых непрочитанных сообщений. Скачать торрент Проверен Я люблю тебя до смерти / I Love You to Death (1990) WEB-DLRip | D

в форуме Комедии, Размер: 1.45 ГБ, Здоровье: 100%

Гость

0
72|38

39
31

13 апр 2015, 23:16

Гость Перейти к последнему сообщению

В этой теме нет новых непрочитанных сообщений. Скачать торрент Знак смерти / Dead Sign (2013) WEB-DLRip | L2

в форуме Триллеры, Размер: 1.46 ГБ, Здоровье: 0%

Anonymous

0
0|0

24
0

14 фев 2014, 15:13

Anonymous Перейти к последнему сообщению

В этой теме нет новых непрочитанных сообщений. Скачать торрент Проверен Бой до смерти / Death Match (1994) DVDRip | A

в форуме Боевики, Размер: 1.37 ГБ, Здоровье: ???%

Гость

0
0|13

116
0

03 фев 2015, 17:27

Гость Перейти к последнему сообщению

В этой теме нет новых непрочитанных сообщений. Скачать торрент До смерти красива / Drop Dead Diva [S01-05] (2009-2013) WEB-DLRip

в форуме Зарубежные сериалы, Размер: 47.02 ГБ, Здоровье: 50%

Anonymous

0
18|36

66
616

05 апр 2014, 11:51

Anonymous Перейти к последнему сообщению

В этой теме нет новых непрочитанных сообщений. Скачать торрент Проверен Игра смерти / Game of Death (1978) BDRip

в форуме Боевики, Размер: 2.18 ГБ, Здоровье: 100%

Anonymous

0
10|0

57
378

20 июл 2014, 22:48

Anonymous Перейти к последнему сообщению



Сейчас этот форум просматривают: нет зарегистрированных пользователей и гости: 1


Вы не можете начинать темы
Вы не можете отвечать на сообщения
Вы не можете редактировать свои сообщения
Вы не можете удалять свои сообщения
Вы не можете добавлять вложения

Перейти:  

!ВНИМАНИЕ!
 Ресурс не предоставляет электронные версии произведений, а занимается лишь коллекционированием и каталогизацией ссылок, присылаемых и публикуемых на форуме нашими читателями. Если вы являетесь правообладателем какого-либо представленного материала и не желаете чтобы ссылка на него находилась в нашем каталоге, свяжитесь с нами и мы незамедлительно удалим её. Файлы для обмена на трекере предоставлены пользователями сайта, и администрация не несёт ответственности за их содержание. Просьба не заливать файлы, защищенные авторскими правами, а также файлы нелегального содержания!