На всех торрентах на трекере установлена скидка на скачивание в размере 100 процентов(а).
 Возможность скачивания торрента НЕ зависит от ограничений при низком ратио, низком аплоаде, требуемом ратио или требуемом аплоаде.


Начать новую тему Ответить на тему
Статистика раздачи
Размер: 1.45 ГБ | Добавлен: 26 авг 2014, 20:25 | Скачали: 215
Сидеров: 41  [0 байт/сек]    Личеров: 3  [0 байт/сек]
Пред. тема | След. тема 

Автор
Сообщение

СообщениеДобавлено: 26 авг 2014, 20:25 

Название: Ночной сторож
Оригинальное название: Nattevagten
Год выхода: 1994
Жанр: Ужасы, триллер
Режиссер: Оле Борнедаль

В ролях: Николай Костер-Валдау, Ким Бодния, Софи Гробель, Лотти Андерсен, Рикке Луиз Андерссон, Стиг Хоффмайер, Гирд Лофквист, Нильс Андерс Торн

О фильме:
Студент Мартин решил немного подработать. Для этой цели он нашел себе нехлопотное, спокойное и очень тихое место сторожа в морге. Конечно, немного страшновато, но ведь никто не мешает готовиться к занятиям, не отвлекает. Не отвлекает? Если бы так! Оказывается, именно сюда привозят трупы несчастных девушек, изуродованных кровожадным маньяком, держащим в страхе весь город. В морге начинают происходить странные вещи. В безмолвный мир мертвых вторгаются живые, и становится действительно жутко. Ведь мертвые не могут себя защитить.



Страна: Дания / Det Danske Filminstitut, DR Fiktion, Obel Film, Thura Film
Продолжительность: 01:47:20
Перевод: Профессиональный двухголосый


Качество: BDRip
Видео: XviD, 1537 Кбит/с, 720x384
Аудио #1: Русский (AC3, 2 ch, 192 Кбит/с) / Профессиональный двухголосый
Аудио #2: Датский (AC3, 2 ch, 192 Кбит/с)

Семпл

Format : AVI
Format/Info : Audio Video Interleave
File size : 1.45 GiB
Duration : 1h 47mn
Overall bit rate : 1 935 Kbps
Movie name : Nattevagten.1994.XviD.BDRip-MediaClub
Director : Encode by Odessit
Writing application : VirtualDubMod 1.5.10.3 | http://www.virtualdub-fr.org || (build 2550/release)

Video
ID : 0
Format : MPEG-4 Visual
Format profile : Advanced Simple@L5
Format settings, BVOP : 1
Format settings, QPel : No
Format settings, GMC : No warppoints
Format settings, Matrix : Custom
Codec ID : XVID
Codec ID/Hint : XviD
Duration : 1h 47mn
Bit rate : 1 537 Kbps
Width : 720 pixels
Height : 384 pixels
Display aspect ratio : 1.875
Frame rate : 23.976 fps
Color space : YUV
Chroma subsampling : 4:2:0
Bit depth : 8 bits
Scan type : Progressive
Compression mode : Lossy
Bits/(Pixel*Frame) : 0.232
Stream size : 1.15 GiB (79%)
Writing library : XviD 73

Audio #1
ID : 1
Format : AC-3
Format/Info : Audio Coding 3
Mode extension : CM (complete main)
Codec ID : 2000
Duration : 1h 47mn
Bit rate mode : Constant
Bit rate : 192 Kbps
Channel(s) : 2 channels
Channel positions : Front: L R
Sampling rate : 48.0 KHz
Bit depth : 16 bits
Compression mode : Lossy
Stream size : 147 MiB (10%)
Alignment : Split accross interleaves
Interleave, duration : 42 ms (1.00 video frame)
Interleave, preload duration : 500 ms

Audio #2
ID : 2
Format : AC-3
Format/Info : Audio Coding 3
Mode extension : CM (complete main)
Codec ID : 2000
Duration : 1h 47mn
Bit rate mode : Constant
Bit rate : 192 Kbps
Channel(s) : 2 channels
Channel positions : Front: L R
Sampling rate : 48.0 KHz
Bit depth : 16 bits
Compression mode : Lossy
Stream size : 147 MiB (10%)
Alignment : Split accross interleaves
Interleave, duration : 42 ms (1.00 video frame)
Interleave, preload duration : 500 ms



Релиз от:

ЦитатаКто-то писал:
[*]Синхронизация звука kaspr
загрузка...
Правила, инструкции, FAQ!!!
Торрент  Добавлен [26 авг 2014, 20:25] Скачать торрент
Скачать торрент
[ Размер 15.09 КБ / Просмотров 11 ]

Статус
Проверен 
 
Размер  1.45 ГБ
Приватный: Нет (DHT включён)
.torrent скачан  215
Как залить торрент? | Как скачать Torrent? | Как смотреть и слушать онлайн?  


     Отправить личное сообщение
   
Страница 1 из 1
Показать сообщения за:  Поле сортировки  
Начать новую тему Ответить на тему

   Похожие торренты   Автор   Ответы   Просмотры   Последнее сообщение 
В этой теме нет новых непрочитанных сообщений. Скачать торрент Проверен Ночной сторож / Nattevagten (1994) BDRip 720p | P2

в форуме 720p | 1080p, Размер: 8.77 ГБ, Здоровье: 100%

Anonymous

0
15|7

44
78

26 авг 2014, 20:27

Anonymous Перейти к последнему сообщению

В этой теме нет новых непрочитанных сообщений. Скачать торрент Проверен Ночной портье / Il portiere di notte (1974) BDRip | КПК

в форуме Видео для смартфонов и КПК, Размер: 534.39 МБ, Здоровье: 100%

Гость

0
13|2

85
21

16 ноя 2015, 00:03

Гость Перейти к последнему сообщению

В этой теме нет новых непрочитанных сообщений. Скачать торрент Проверен Ночной народ / Nightbreed (1990) BDRip 1080p

в форуме 720p | 1080p, Размер: 7.81 ГБ, Здоровье: 100%

Anonymous

0
23|7

22
134

09 ноя 2014, 19:26

Anonymous Перейти к последнему сообщению

В этой теме нет новых непрочитанных сообщений. Скачать торрент Проверен Ночной беглец / Run All Night (2015) BDRip 1080p | iTunes

в форуме 720p | 1080p, Размер: 9.2 ГБ, Здоровье: 100%

Anonymous

0
613|301

205
1315

29 июн 2015, 22:37

Anonymous Перейти к последнему сообщению

В этой теме нет новых непрочитанных сообщений. Скачать торрент Проверен Ночной драйв / Night Drive (2010) BDRip 720p | P

в форуме 720p | 1080p, Размер: 4.51 ГБ, Здоровье: 100%

Anonymous

0
11|0

57
35

18 май 2014, 21:42

Anonymous Перейти к последнему сообщению



Сейчас этот форум просматривают: нет зарегистрированных пользователей и гости: 1


Вы не можете начинать темы
Вы не можете отвечать на сообщения
Вы не можете редактировать свои сообщения
Вы не можете удалять свои сообщения
Вы не можете добавлять вложения

Перейти:  

!ВНИМАНИЕ!
 Ресурс не предоставляет электронные версии произведений, а занимается лишь коллекционированием и каталогизацией ссылок, присылаемых и публикуемых на форуме нашими читателями. Если вы являетесь правообладателем какого-либо представленного материала и не желаете чтобы ссылка на него находилась в нашем каталоге, свяжитесь с нами и мы незамедлительно удалим её. Файлы для обмена на трекере предоставлены пользователями сайта, и администрация не несёт ответственности за их содержание. Просьба не заливать файлы, защищенные авторскими правами, а также файлы нелегального содержания!