На всех торрентах на трекере установлена скидка на скачивание в размере 100 процентов(а).
 Возможность скачивания торрента НЕ зависит от ограничений при низком ратио, низком аплоаде, требуемом ратио или требуемом аплоаде.


Начать новую тему Ответить на тему
Статистика раздачи
Размер: 1.37 ГБ | Добавлен: 02 мар 2013, 09:49 | Скачали: 0
Сидеров: 0  [0 байт/сек]    Личеров: 0  [0 байт/сек]
Пред. тема | След. тема 

Автор
Сообщение

СообщениеДобавлено: 02 мар 2013, 09:49 

Озеро страха 4 / Озеро страха: Последняя глава


Страна: США

Жанр: ужасы
Год выпуска: 2012
Продолжительность: 01:30:14
Перевод: Одноголосый закадровый
Cубтитры: нет

Режиссер: Дон Майкл Пол / Don Michael Paul


В фильме снимались: Роберт Инглунд, Элизабет Рём, Янси Батлер, Пол Николлс, Поппи Ли Фрайер, Бенедикт Смит, , Кэролайн Форд, Скарлет Бирн, Дэниэл Блэк, Джефф Стюарт


Вкратце: Реба, выжившая в последней схватке с крокодилами и превратившаяся с тех пор в бравую охотницу, оказывает содействие властям в дальнейшей борьбе с рептилиями. Вокруг озера возводят электрифицированное ограждение, но даже его недостаточно, чтобы изолировать опасную зону: за забор проникает развлекающаяся молодёжная компания, да и браконьеры не упустят подвернувшегося шанса подзаработать.




Качество видео: HDRip
Формат видео: AVI
Видео: 720x400 (1.80:1), 23.976 fps, XviD build 50 ~1969 kbps avg, 0.28 bit/pixel
Аудио: 48 kHz, AC3 Dolby Digital, 2/0 (L,R) ch, ~192 kbps


MediaInfo
Общее
Полное имя : C:\Users\С\Videos\Ozero.straha.4.2012.L1.WEBDLRip.avi
Формат : AVI
Формат/Информация : Audio Video Interleave
Размер файла : 1,37 Гбайт
Продолжительность : 1 ч. 30 м.
Общий поток : 2171 Кбит/сек
Программа кодирования : VirtualDubMod 1.5.10.3 | virtualdub-fr.org || (build 2550/release)
Библиотека кодирования : VirtualDubMod build 2550/release[br][/br]Видео
Идентификатор : 0
Формат : MPEG-4 Visual
Профиль формата : Advanced Simple@L5
Параметр BVOP формата : 2
Параметр QPel формата : Нет
Параметр GMC формата : Без точки перехода
Параметр матрицы формата : Default (MPEG)
Идентификатор кодека : XVID
Идентификатор кодека/Подсказка : XviD
Продолжительность : 1 ч. 30 м.
Битрейт : 1969 Кбит/сек
Ширина : 720 пикселей
Высота : 400 пикселей
Соотношение сторон : 16:9
Частота кадров : 23,976 кадра/сек
Цветовое пространство : YUV
Субдискретизация насыщенности : 4:2:0
Битовая глубина : 8 бит
Тип развёртки : Прогрессивная
Метод сжатия : С потерями
Бит/(Пиксели*Кадры) : 0.285
Размер потока : 1,24 Гбайт (91%)
Библиотека кодирования : XviD 1.2.1 (UTC 2008-12-04)[br][/br]Аудио
Идентификатор : 1
Формат : AC-3
Формат/Информация : Audio Coding 3
Расширение режима : CM (complete main)
Параметр Endianness формата : Big
Идентификатор кодека : 2000
Продолжительность : 1 ч. 30 м.
Вид битрейта : Постоянный
Битрейт : 192 Кбит/сек
Каналы : 2 канала
Расположение каналов : Front: L R
Частота : 48,0 КГц
Битовая глубина : 16 бит
Метод сжатия : С потерями
Размер потока : 124 Мбайт (9%)
Выравнивание : Разделение по промежуткам
Продолжительность промежутка : 42 мс. (1,00 видеокадр)
Время предзагрузки промежутка : 500 мс.



загрузка...
Правила, инструкции, FAQ!!!
Торрент  Добавлен [02 мар 2013, 09:49] Скачать торрент
Скачать торрент
[ Размер 14.29 КБ / Просмотров 11 ]

Статус  
 
Размер  1.37 ГБ
Приватный: Нет (DHT включён)
.torrent скачан  0
Как залить торрент? | Как скачать Torrent? | Как смотреть и слушать онлайн?  


     Отправить личное сообщение
   
Страница 1 из 1
Показать сообщения за:  Поле сортировки  
Начать новую тему Ответить на тему

   Похожие торренты   Автор   Ответы   Просмотры   Последнее сообщение 
В этой теме нет новых непрочитанных сообщений. Скачать торрент Проверен Лэйк Плэсид: Озеро страха / Lake Placid (1999) DVDRip-AVC

в форуме Ужасы, Размер: 2.04 ГБ, Здоровье: 100%

Anonymous

0
5|2

59
45

11 июл 2014, 09:01

Anonymous Перейти к последнему сообщению

В этой теме нет новых непрочитанных сообщений. Скачать торрент Проверен Лэйк Плэсид: Озеро страха / Lake Placid (1999) BDRip 1080p | D, P, A

в форуме 720p | 1080p, Размер: 5.51 ГБ, Здоровье: 60%

Anonymous

0
3|5

59
19

11 июл 2014, 08:57

Anonymous Перейти к последнему сообщению

В этой теме нет новых непрочитанных сообщений. Скачать торрент Черное озеро / Озеро нуар / Lake noir (2013) WEB-DLRip | L1

в форуме Ужасы, Размер: 1.37 ГБ, Здоровье: 0%

Anonymous

0
0|0

134
0

14 янв 2014, 14:44

Anonymous Перейти к последнему сообщению

В этой теме нет новых непрочитанных сообщений. Скачать торрент Озеро Сэм / Sam's Lake (Эндрю С. Эрин / Andrew C. Erin) [2005 г., ужасы, триллер, DVDRip]

в форуме Ужасы, Размер: 745.22 МБ, Здоровье: 100%

Anonymous

0
6|3

62
0

26 апр 2014, 20:59

Anonymous Перейти к последнему сообщению

В этой теме нет новых непрочитанных сообщений. Скачать торрент Проверен Пила 7: Последняя глава / Saw VII: The Final Chapter (2010) BDRip 720p | Режиссёрская версия

в форуме 720p | 1080p, Размер: 3.35 ГБ, Здоровье: 100%

Гость

0
42|18

28
135

18 янв 2015, 17:07

Гость Перейти к последнему сообщению



Сейчас этот форум просматривают: нет зарегистрированных пользователей и гости: 1


Вы не можете начинать темы
Вы не можете отвечать на сообщения
Вы не можете редактировать свои сообщения
Вы не можете удалять свои сообщения
Вы не можете добавлять вложения

Перейти:  

!ВНИМАНИЕ!
 Ресурс не предоставляет электронные версии произведений, а занимается лишь коллекционированием и каталогизацией ссылок, присылаемых и публикуемых на форуме нашими читателями. Если вы являетесь правообладателем какого-либо представленного материала и не желаете чтобы ссылка на него находилась в нашем каталоге, свяжитесь с нами и мы незамедлительно удалим её. Файлы для обмена на трекере предоставлены пользователями сайта, и администрация не несёт ответственности за их содержание. Просьба не заливать файлы, защищенные авторскими правами, а также файлы нелегального содержания!