На всех торрентах на трекере установлена скидка на скачивание в размере 100 процентов(а).
 Возможность скачивания торрента НЕ зависит от ограничений при низком ратио, низком аплоаде, требуемом ратио или требуемом аплоаде.


Начать новую тему Ответить на тему
Статистика раздачи
Размер: 2.04 ГБ | Добавлен: 11 июл 2014, 09:01 | Скачали: 45
Сидеров: 5  [0 байт/сек]    Личеров: 2  [0 байт/сек]
Пред. тема | След. тема 

Автор
Сообщение

СообщениеДобавлено: 11 июл 2014, 09:01 

Название: Лэйк Плэсид: Озеро страха
Оригинальное название: Lake Placid
Год выхода: 1999
Жанр: комедия, приключения, ужасы
Режиссер: Стив Майнер

В ролях: Билл Пуллман, Бриджит Фонда, Оливер Плэтт, Брендан Глиссон, Бетти Уайт, Дэвид Льюис, Тим Диксон, Натасия Мальте, Маришка Харгитей, Мередит Селенджер, Джед Риис, Ричард Ликок, Джэйк Т. Робертс, Уоррен Текучи, Ти Олссон, Адам Аркин, Стив Майнер

О фильме:
На темном дне озера Лейк-Плэсид, в предвкушении следующей жертвы, затаилось гигантское чудовище, которому не место ни в этом времени, ни в этом озере. Шериф с помощниками, специалист по крокодилам Джек Уэллс и девушка из музея Келли Скотт отправляются к озеру на поиски страшилища. Им оказывается гигантский крокодил.



Страна: США
Студия: ХХ-й Век-Фокс
Продолжительность: 01:18:39
Перевод: Дубляж (Мосфильм), Профессиональный (многоголосый закадровый) (R5)


Кодек: AVC
Качество: DVDRip (AVC)
Видео: 696x436@982x436 (2,25:1); 2 424 Kbps; 25.000 fps
Звук:
Аудио 1: [RUS] 44 kHz, AC3 5.1 ch, 448 kbps - Дубляж | Исходник - видеокассета Парадиз-Видео (2.0 моно), в 5.1 складывал я
Аудио 2: [RUS] 48 kHz, AC3 5.1 ch, 384 kbps - Профессиональный (многоголосый закадровый) | Лицензия DVD R5
Аудио 3: [ENG] 48 kHz, AC3 5.1 ch, 448 kbps - Оригинальный
Субтитры: English (UTF-8 Plain Text)

Скрины с учетом анаморфа

H:VideoLake Placid (1999)(1999) Лейк Плесид - Озеро страха DUB51.mkv
General
Unique ID : 173169852969080137222667148561013864392 (0x82474CEF85D9723596CB7697A3FCF7C8)
Complete name : H:VideoLake Placid (1999)(1999) Лейк Плесид - Озеро страха DUB51.mkv
Format : Matroska
Format version : Version 2
File size : 2.04 GiB
Duration : 1h 18mn
Overall bit rate : 3 706 Kbps
Movie name : (1999) Лейк Плесид: Озеро страха
Encoded date : UTC 2012-11-03 10:44:43
Writing application : mkvmerge v3.4.0 ('Rapunzel') nai?ea io May 15 2010 09:38:20
Writing library : libebml v0.8.0 + libmatroska v0.9.0
Video #1
ID : 1
Format : AVC
Format/Info : Advanced Video Codec
Format profile : High@L4.1
Format settings, CABAC : Yes
Format settings, ReFrames : 10 frames
Codec ID : V_MPEG4/ISO/AVC
Duration : 1h 18mn
Bit rate : 2 424 Kbps
Width : 696 pixels
Height : 436 pixels
Display aspect ratio : 2.25:1
Original display aspect ratio : 2.25:1
Frame rate : 25.000 fps
Color space : YUV
Chroma subsampling : 4:2:0
Bit depth : 8 bits
Scan type : Progressive
Bits/(Pixel*Frame) : 0.320
Stream size : 1.29 GiB (63%)
Title : (1999) Лейк Плесид: Озеро страха
Writing library : x264 core 116 r2044 392e762
Encoding settings : cabac=1 / ref=10 / deblock=1:-2:-1 / analyse=0x3:0x133 / me=umh / subme=11 / psy=1 / psy_rd=1.00:0.15 / mixed_ref=1 / me_range=32 / chroma_me=1 / trellis=2 / 8x8dct=1 / cqm=0 / deadzone=21,11 / fast_pskip=1 / chroma_qp_offset=-3 / threads=12 / sliced_threads=0 / nr=0 / decimate=1 / interlaced=0 / bluray_compat=0 / constrained_intra=0 / bframes=12 / b_pyramid=2 / b_adapt=2 / b_bias=0 / direct=3 / weightb=1 / open_gop=0 / weightp=2 / keyint=250 / keyint_min=25 / scenecut=40 / intra_refresh=0 / rc_lookahead=90 / rc=2pass / mbtree=1 / bitrate=2424 / ratetol=1.0 / qcomp=0.70 / qpmin=0 / qpmax=69 / qpstep=4 / cplxblur=20.0 / qblur=0.5 / ip_ratio=1.40 / aq=1:1.00
Language : English
Default : No
Forced : No
Audio #2
ID : 2
Format : AC-3
Format/Info : Audio Coding 3
Mode extension : CM (complete main)
Codec ID : A_AC3
Duration : 1h 18mn
Bit rate mode : Constant
Bit rate : 448 Kbps
Channel(s) : 6 channels
Channel positions : Front: L C R, Side: L R, LFE
Sampling rate : 44.1 KHz
Bit depth : 16 bits
Compression mode : Lossy
Stream size : 252 MiB (12%)
Title : Дубляж [Mixed by Youli]
Language : Russian
Default : Yes
Forced : Yes
Audio #3
ID : 3
Format : AC-3
Format/Info : Audio Coding 3
Mode extension : CM (complete main)
Codec ID : A_AC3
Duration : 1h 18mn
Bit rate mode : Constant
Bit rate : 384 Kbps
Channel(s) : 6 channels
Channel positions : Front: L C R, Side: L R, LFE
Sampling rate : 48.0 KHz
Bit depth : 16 bits
Compression mode : Lossy
Stream size : 216 MiB (10%)
Title : Многоголосый закадровый
Language : Russian
Default : No
Forced : No
Audio #4
ID : 4
Format : AC-3
Format/Info : Audio Coding 3
Mode extension : CM (complete main)
Codec ID : A_AC3
Duration : 1h 18mn
Bit rate mode : Constant
Bit rate : 448 Kbps
Channel(s) : 6 channels
Channel positions : Front: L C R, Side: L R, LFE
Sampling rate : 48.0 KHz
Bit depth : 16 bits
Compression mode : Lossy
Stream size : 252 MiB (12%)
Title : Оригинал
Language : English
Default : No
Forced : No
Text #5
ID : 5
Format : UTF-8
Codec ID : S_TEXT/UTF8
Codec ID/Info : UTF-8 Plain Text
Title : Оригинальный
Language : English
Default : No
Forced : No
загрузка...
Правила, инструкции, FAQ!!!
Торрент  Добавлен [11 июл 2014, 09:01] Скачать торрент
Скачать торрент
[ Размер 10.72 КБ / Просмотров 8 ]

Статус
Проверен 
 
Размер  2.04 ГБ
Приватный: Нет (DHT включён)
.torrent скачан  45
Как залить торрент? | Как скачать Torrent? | Как смотреть и слушать онлайн?  


     Отправить личное сообщение
   
Страница 1 из 1
Показать сообщения за:  Поле сортировки  
Начать новую тему Ответить на тему

   Похожие торренты   Автор   Ответы   Просмотры   Последнее сообщение 
В этой теме нет новых непрочитанных сообщений. Скачать торрент Проверен Лэйк Плэсид: Озеро страха / Lake Placid (1999) BDRip 1080p | D, P, A

в форуме 720p | 1080p, Размер: 5.51 ГБ, Здоровье: 60%

Anonymous

0
3|5

60
19

11 июл 2014, 08:57

Anonymous Перейти к последнему сообщению

В этой теме нет новых непрочитанных сообщений. Скачать торрент Черное озеро / Озеро нуар / Lake noir (2013) WEB-DLRip | L1

в форуме Ужасы, Размер: 1.37 ГБ, Здоровье: 0%

Anonymous

0
0|0

137
0

14 янв 2014, 14:44

Anonymous Перейти к последнему сообщению

В этой теме нет новых непрочитанных сообщений. Скачать торрент Озеро Сэм / Sam's Lake (Эндрю С. Эрин / Andrew C. Erin) [2005 г., ужасы, триллер, DVDRip]

в форуме Ужасы, Размер: 745.22 МБ, Здоровье: 100%

Anonymous

0
6|3

62
0

26 апр 2014, 20:59

Anonymous Перейти к последнему сообщению

В этой теме нет новых непрочитанных сообщений. Скачать торрент Проверен Озеро надежд / Hope Lake (2014) PC

в форуме Приключения и квесты|я ищу, Размер: 704.52 МБ, Здоровье: 100%

Anonymous

0
100|1

66
14

21 май 2014, 22:10

Anonymous Перейти к последнему сообщению

В этой теме нет новых непрочитанных сообщений. Скачать торрент Проверен Райское озеро / Eden Lake (2008) BDRemux 1080p | D

в форуме BD-Remux, Размер: 15.1 ГБ, Здоровье: 100%

Anonymous

0
42|34

213
20

05 сен 2015, 19:15

Anonymous Перейти к последнему сообщению



Сейчас этот форум просматривают: нет зарегистрированных пользователей и гости: 1


Вы не можете начинать темы
Вы не можете отвечать на сообщения
Вы не можете редактировать свои сообщения
Вы не можете удалять свои сообщения
Вы не можете добавлять вложения

Перейти:  

!ВНИМАНИЕ!
 Ресурс не предоставляет электронные версии произведений, а занимается лишь коллекционированием и каталогизацией ссылок, присылаемых и публикуемых на форуме нашими читателями. Если вы являетесь правообладателем какого-либо представленного материала и не желаете чтобы ссылка на него находилась в нашем каталоге, свяжитесь с нами и мы незамедлительно удалим её. Файлы для обмена на трекере предоставлены пользователями сайта, и администрация не несёт ответственности за их содержание. Просьба не заливать файлы, защищенные авторскими правами, а также файлы нелегального содержания!