На всех торрентах на трекере установлена скидка на скачивание в размере 100 процентов(а).
 Возможность скачивания торрента НЕ зависит от ограничений при низком ратио, низком аплоаде, требуемом ратио или требуемом аплоаде.


Начать новую тему Ответить на тему
Статистика раздачи
Размер: 1.46 ГБ | Добавлен: 28 апр 2014, 22:41 | Скачали: 0
Сидеров: 11  [0 байт/сек]    Личеров: 4  [0 байт/сек]
Пред. тема | След. тема 

Автор
Сообщение

СообщениеДобавлено: 28 апр 2014, 22:41 

Колыбель кошмаров / Cradle of Fear

Страна: Великобритания
Жанр: ужасы
Год выпуска: 2001
Продолжительность: 02:00:03




Перевод: Профессиональный (двухголосый закадровый)
Cубтитры: нет



Режиссер: Алекс Чендон / Alex Chandon
В ролях: Дэни Филт, Эмили Бут, Стюарт Лэйн, Эдмунд Дин, Эйлин Дэйли, Ребекка Иден, Луи Браунселл, Дэвид МакЭвен, Уилли Эванс, Эмма Райс




Описание: Ночной Лондон полон зловещих тайн и тёмных секретов, но существует один «человек» который знает их наизусть… После рокового свидания со странным незнакомцем, загадочную красавицу Мэл всюду приследуют кошмарные видения. Она не подозревает, что стала любовницей посланца ада и теперь носит его дитя… Воровки Софи и Эмма проникают в жилище одинокого старика. Жестоко разделавшись с хозяином дома, Софи убивает Эмму, чтобы присвоить добычу. Она покидает место преступления, не догадываясь, что подруга не намерена прощать ей свою смерть… У Ника есть всё, что могут дать деньги. Почти всё. То, чего ему не хватает для полного счастья, купить нельзя. Ведь живой человек никогда не продаст часть себя. Остаётся пойти на убийство… Но исполнившего таким образом свою мечту ждет расплата. Бродя по дебрям интернета, Ричард наткнулся на сайт «Комнаты смерти», где можно заказать убийство человека и насладиться этим зрелищем. Вскоре он решает разыскать настоящую «Комнату смерти», сделав первый шаг навстречу своей гибели… Неистребимое зло непрестанно ищет среди нас рабов своих жутких пороков.









Качество видео: DVDRip (Исх. Cradle of Fear (2001) DVD9 | P2 - 6.86 GB - rutor)
Формат видео: AVI
Видео: 640x384 (1.67:1), 23.976 fps, XviD build 65 ~1345 kbps avg, 0.23 bit/pixel
Аудио: 48 kHz, AC3 Dolby Digital, 3/2 (L,C,R,l,r) + LFE ch, ~384 kbps

MediaInfo
General
Complete name : D:\Релизы\Cradle of Fear.2001.RUS.DVDRip.XviD.AC3.avi
Format : AVI
Format/Info : Audio Video Interleave
File size : 1.46 GiB
Duration : 2h 0mn
Overall bit rate : 1 739 Kbps
Writing application : VirtualDubMod 1.5.10.2 (build 2540/release)
Writing library : VirtualDubMod build 2540/release

Video
ID : 0
Format : MPEG-4 Visual
Format profile : Advanced Simple@L5
Format settings, BVOP : 1
Format settings, QPel : No
Format settings, GMC : No warppoints
Format settings, Matrix : Custom
Codec ID : XVID
Codec ID/Hint : XviD
Duration : 2h 0mn
Bit rate : 1 346 Kbps
Width : 640 pixels
Height : 384 pixels
Display aspect ratio : 1.667
Frame rate : 23.976 fps
Color space : YUV
Chroma subsampling : 4:2:0
Bit depth : 8 bits
Scan type : Progressive
Compression mode : Lossy
Bits/(Pixel*Frame) : 0.228
Stream size : 1.13 GiB (77%)
Writing library : XviD 65

Audio
ID : 1
Format : AC-3
Format/Info : Audio Coding 3
Mode extension : CM (complete main)
Format settings, Endianness : Big
Codec ID : 2000
Duration : 2h 0mn
Bit rate mode : Constant
Bit rate : 384 Kbps
Channel(s) : 6 channels
Channel positions : Front: L C R, Side: L R, LFE
Sampling rate : 48.0 KHz
Bit depth : 16 bits
Compression mode : Lossy
Delay relative to video : 1s 976ms
Stream size : 330 MiB (22%)
Alignment : Split accross interleaves
Interleave, duration : 42 ms (1.00 video frame)
Interleave, preload duration : 500 ms


Скриншоты
загрузка...
Правила, инструкции, FAQ!!!
Торрент  Добавлен [28 апр 2014, 22:41] Скачать торрент
Скачать торрент
[ Размер 15.09 КБ / Просмотров 5 ]

Статус  
 
Размер  1.46 ГБ
Приватный: Нет (DHT включён)
.torrent скачан  0
Как залить торрент? | Как скачать Torrent? | Как смотреть и слушать онлайн?  


     Отправить личное сообщение
   
Страница 1 из 1
Показать сообщения за:  Поле сортировки  
Начать новую тему Ответить на тему

   Похожие торренты   Автор   Ответы   Просмотры   Последнее сообщение 
В этой теме нет новых непрочитанных сообщений. Скачать торрент Выходы на чердак / Приют кошмаров / Приют ужасов / The Attic Expeditions (Джерами Кастен / Jeremy Kasten) [2001, США, ужасы, триллер, комедия, DVDRip] AVO (Кузнецов)

в форуме Ужасы, Размер: 745.72 МБ, Здоровье: 0%

Anonymous

0
0|0

43
1

10 фев 2014, 13:03

Anonymous Перейти к последнему сообщению

В этой теме нет новых непрочитанных сообщений. Скачать торрент Проверен Лара Крофт: Колыбель жизни / Lara Croft Tomb Raider: The Cradle of Life (2003) BDRip

в форуме Фантастика, Фэнтези, Размер: 2.18 ГБ, Здоровье: 100%

Anonymous

0
97|6

66
23

16 ноя 2014, 16:23

Anonymous Перейти к последнему сообщению

В этой теме нет новых непрочитанных сообщений. Скачать торрент Проверен Лара Крофт: Колыбель жизни / Lara Croft Tomb Raider: The Cradle of Life (2003) BDRip 1080p

в форуме 720p | 1080p, Размер: 5.77 ГБ, Здоровье: 100%

Anonymous

0
34|4

46
160

16 ноя 2014, 16:18

Anonymous Перейти к последнему сообщению

В этой теме нет новых непрочитанных сообщений. Скачать торрент Проверен Лара Крофт: Расхитительница гробниц 2 – Колыбель / Lara Croft Tomb Raider: The Cradle of Life (2003) BDRip 720p

в форуме 720p | 1080p, Размер: 3.83 ГБ, Здоровье: ???%

Anonymous

0
0|21

57
0

16 ноя 2014, 16:15

Anonymous Перейти к последнему сообщению

В этой теме нет новых непрочитанных сообщений. Скачать торрент Третье измерение ада / The Devil's Chair (Адам Мэйсон / Adam Mason) [2006, Великобритания, ужасы, DVDRip] MVO

в форуме Ужасы, Размер: 1.46 ГБ, Здоровье: 0%

Anonymous

0
0|0

32
2

04 фев 2014, 21:27

Anonymous Перейти к последнему сообщению



Сейчас этот форум просматривают: нет зарегистрированных пользователей и гости: 1


Вы не можете начинать темы
Вы не можете отвечать на сообщения
Вы не можете редактировать свои сообщения
Вы не можете удалять свои сообщения
Вы не можете добавлять вложения

Перейти:  

!ВНИМАНИЕ!
 Ресурс не предоставляет электронные версии произведений, а занимается лишь коллекционированием и каталогизацией ссылок, присылаемых и публикуемых на форуме нашими читателями. Если вы являетесь правообладателем какого-либо представленного материала и не желаете чтобы ссылка на него находилась в нашем каталоге, свяжитесь с нами и мы незамедлительно удалим её. Файлы для обмена на трекере предоставлены пользователями сайта, и администрация не несёт ответственности за их содержание. Просьба не заливать файлы, защищенные авторскими правами, а также файлы нелегального содержания!