На всех торрентах на трекере установлена скидка на скачивание в размере 100 процентов(а).
 Возможность скачивания торрента НЕ зависит от ограничений при низком ратио, низком аплоаде, требуемом ратио или требуемом аплоаде.


Начать новую тему Ответить на тему
Статистика раздачи
Размер: 1.73 ГБ | Добавлен: 25 апр 2014, 08:55 | Скачали: 0
Сидеров: 19  [0 байт/сек]    Личеров: 6  [0 байт/сек]
Пред. тема | След. тема 

Автор
Сообщение

СообщениеДобавлено: 25 апр 2014, 08:55 

Пила. Игра на выживание / Saw / Director's Cut

Страна: США
Жанр: ужасы, триллер
Год выпуска: 2004
Продолжительность: 01:42:46

Перевод: Профессиональный (дублированный)
Cубтитры: английский, русский
Оригинальная аудиодорожка: английский

Режиссер: Джеймс Ван / James Wan

В ролях: Ли Уоннелл (Adam), Кэри Элвис (Dr. Lawrence Gordon), Дэнни Гловер (Detective David Tapp), Кен Люн (Detective Steven Sing), Дина Мейер (Kerry), Майк Баттерс (Paul), Пол Гутрехт (Mark), Майкл Эмерсон (Zepp Hindle), Бенито Мартинес (Brett), Шоуни Смит (Amanda), Макензи Вега (Diana Gordon), Моника Поттер (Alison Gordon)

Описание: Двое незнакомцев просыпаются в странном подвальном помещении. В центре помещения - труп мужчины с простреленной головой и оружием в ослабевшей руке. Они же прикованы к стенам цепями за щиколотки. Оба не знают, как там оказались.
Путём нехитрых предположений и спрятанных вокруг них ответов, как частей какого-то паззла, они узнают, по крайней мере, зачем они здесь и что именно от них ждёт их Похититель. Голос с найденной плёнки бесстрастно вещает: «Если ты хочешь спасти свою жену и детей, убей другого». Убить другого можно, только дотянувшись до оружия.
Дотянуться до оружия нельзя иначе, как избавившись от цепи. Избавиться от цепи нельзя иначе, кроме как отпилив ногу. Времени - мало. Но достаточно, чтобы реконструировать цепочку странных событий, которые привели каждого из них туда, где они сейчас оказались…

Сэмпл: Скачать


Качество видео: BDRip-AVC
Формат видео: MKV

Видео: AVC; 876x492 (16:9); 1641 Kbps; 23,976 fps; 0,159 bpp
Аудио 1: Russian; AC3; 384 Kbps; CBR; 6 ch; 16 bit
Аудио 2: English; AC3; 384 Kbps; CBR; 6 ch; 16 bit (Отдельно)
Субтитры №1: Русские, полные; SRT; (Отдельно)
Субтитры №2: Английские, полные; SRT; (Отдельно)
MediaInfo
log
Код:
Код:
---[NoImage] avs [info]: 876x492p 1:1 @ 24000/1001 fps (cfr)
---[NoImage] x264 [info]: using SAR=1/1
---[NoImage] x264 [info]: using cpu capabilities: MMX2 SSE2Fast SSSE3 FastShuffle SSE4.2
---[NoImage] x264 [info]: profile High, level 3.2
---[NoImage]
---[NoImage] x264 [info]: frame I:1327  Avg QP:20.16  size: 41379
---[NoImage] x264 [info]: frame P:26363 Avg QP:21.96  size: 16388
---[NoImage] x264 [info]: frame B:120150 Avg QP:23.26  size:  6473
---[NoImage] x264 [info]: consecutive B-frames:  2.1%  1.3%  3.6%  9.1% 13.2% 35.9%  9.5%  5.8%  5.5%  3.3%  2.9%  3.4%  1.8%  1.6%  1.0%
---[NoImage] x264 [info]: mb I  I16..4: 10.3% 77.1% 12.5%
---[NoImage] x264 [info]: mb P  I16..4:  1.0%  9.3%  1.0%  P16..4: 33.9% 35.2%  8.0%  1.9%  0.1%    skip: 9.5%
---[NoImage] x264 [info]: mb B  I16..4:  0.0%  1.1%  0.1%  B16..8: 35.5% 16.6%  2.3%  direct: 5.4%  skip:39.1%  L0:43.1% L1:46.7% BI:10.1%
---[NoImage] x264 [info]: 8x8 transform intra:83.2% inter:66.5%
---[NoImage] x264 [info]: direct mvs  spatial:98.7% temporal:1.3%
---[NoImage] x264 [info]: coded y,uvDC,uvAC intra: 87.9% 78.2% 56.7% inter: 22.1% 27.8% 11.9%
---[NoImage] x264 [info]: i16 v,h,dc,p: 29% 18%  4% 49%
---[NoImage] x264 [info]: i8 v,h,dc,ddl,ddr,vr,hd,vl,hu:  9%  7%  4% 10% 16% 15% 14% 13% 13%
---[NoImage] x264 [info]: i4 v,h,dc,ddl,ddr,vr,hd,vl,hu: 12%  7%  4% 10% 16% 15% 14% 11% 12%
---[NoImage] x264 [info]: i8c dc,h,v,p: 40% 24% 17% 18%
---[NoImage] x264 [info]: Weighted P-Frames: Y:6.1% UV:2.1%
---[NoImage] x264 [info]: ref P L0: 50.0%  7.6% 17.5%  7.5%  5.2%  3.8%  2.9%  1.6%  1.3%  1.0%  0.8%  0.7%  0.1%  0.0%
---[NoImage] x264 [info]: ref B L0: 72.6% 13.8%  5.7%  2.7%  1.8%  1.3%  1.0%  0.5%  0.4%  0.2%  0.1%
---[NoImage] x264 [info]: ref B L1: 92.4%  7.6%
---[NoImage] x264 [info]: kb/s:1640.80
---[NoImage] encoded 147840 frames, 6.61 fps, 1640.80 kb/s

Код:
Код:
Общее
Уникальный идентификатор         : 181016803599070137774584437388283765514 (0x882E9178C20DF0F2A32E3CF92414630A)
Формат                           : Matroska
Размер файла                     : 1,45 Гбайт
Продолжительность                : 1 ч. 42 м.
Общий поток                      : 2026 Кбит/сек
Дата кодирования                 : UTC 2012-02-03 09:42:28
Программа кодирования            : mkvmerge v5.2.1 ('A Far Off Place') built on Jan  2 2012 23:21:10
Библиотека кодирования           : libebml v1.2.3 + libmatroska v1.3.0

Видео
Идентификатор                    : 1
Формат                           : AVC
Формат/Информация                : Advanced Video Codec
Профиль формата                  : High@L3.2
Параметр CABAC формата           : Да
Параметр ReFrames формата        : 12 кадры
Идентификатор кодека             : V_MPEG4/ISO/AVC
Продолжительность                : 1 ч. 42 м.
Битрейт                          : 1641 Кбит/сек
Ширина                           : 876 пикс.
Высота                           : 492 пикс.
Соотношение сторон               : 16:9
Частота кадров                   : 23,976 кадр/сек
Цветовое пространство            : YUV
Подвыборка цветности             : 4:2:0
Битовая глубина                  : 8 бит
Тип развёртки                    : Прогрессивная
Бит/(Пиксели*Кадры)              : 0.159
Размер потока                    : 1,15 Гбайт (79%)
Заголовок                        : BDRip.1080p.by.WoRG
Библиотека кодирования           : x264 core 120 r2146 bcd41db
Настройки программы              : cabac=1 / ref=12 / deblock=1:-3:-1 / analyse=0x3:0x133 / me=umh / subme=11 / psy=1 / psy_rd=0.95:0.15 / mixed_ref=1 / me_range=32 / chroma_me=1 / trellis=2 / 8x8dct=1 / cqm=0 / deadzone=6,6 / fast_pskip=0 / chroma_qp_offset=-3 / threads=6 / sliced_threads=0 / nr=0 / decimate=0 / interlaced=0 / bluray_compat=0 / constrained_intra=0 / bframes=14 / b_pyramid=2 / b_adapt=2 / b_bias=0 / direct=3 / weightb=1 / open_gop=0 / weightp=2 / keyint=240 / keyint_min=23 / scenecut=40 / intra_refresh=0 / rc_lookahead=60 / rc=2pass / mbtree=1 / bitrate=1641 / ratetol=1.0 / qcomp=0.80 / qpmin=0 / qpmax=69 / qpstep=4 / cplxblur=20.0 / qblur=0.5 / ip_ratio=1.10 / aq=1:0.50
Язык                             : English

Аудио
Идентификатор                    : 2
Формат                           : AC-3
Формат/Информация                : Audio Coding 3
Расширение режима                : CM (complete main)
Идентификатор кодека             : A_AC3
Продолжительность                : 1 ч. 42 м.
Вид битрейта                     : Постоянный
Битрейт                          : 384 Кбит/сек
Канал(ы)                         : 6 канала(ов)
Расположение каналов             : Front: L C R, Side: L R, LFE
Частота                          : 48,0 КГц
Битовая глубина                  : 16 бит
Метод сжатия                     : С потерями
Размер потока                    : 282 Мбайт (19%)
Заголовок                        : Dub
Язык                             : Russian

Скриншоты
загрузка...
Правила, инструкции, FAQ!!!
Торрент  Добавлен [25 апр 2014, 08:55] Скачать торрент
Скачать торрент
[ Размер 18.13 КБ / Просмотров 7 ]

Статус  
 
Размер  1.73 ГБ
Приватный: Нет (DHT включён)
.torrent скачан  0
Как залить торрент? | Как скачать Torrent? | Как смотреть и слушать онлайн?  


     Отправить личное сообщение
   
Страница 1 из 1
Показать сообщения за:  Поле сортировки  
Начать новую тему Ответить на тему

   Похожие торренты   Автор   Ответы   Просмотры   Последнее сообщение 
В этой теме нет новых непрочитанных сообщений. Скачать торрент Проверен Пила: Игра на выживание / Saw (2004) BDRip 720p | Режиссерская версия

в форуме 720p | 1080p, Размер: 2.92 ГБ, Здоровье: 100%

Anonymous

0
86|27

35
133

13 янв 2015, 17:33

Anonymous Перейти к последнему сообщению

В этой теме нет новых непрочитанных сообщений. Скачать торрент Астрал / Insidious (Джеймс Ван / James Wan) [2010, ужасы, триллер, BDRip-AVC] DUB + Subs

в форуме 720p | 1080p, Размер: 1.46 ГБ, Здоровье: 0%

Anonymous

0
0|0

63
0

14 фев 2014, 07:44

Anonymous Перейти к последнему сообщению

В этой теме нет новых непрочитанных сообщений. Скачать торрент Вторжение / The Invasion (Оливер Хиршбигель / Oliver Hirschbiegel, Джеймс МакТиг / James McTeigue) [2007, США, Австралия, Ужасы, Триллер, Фантастика, BDRip] DUB

в форуме Ужасы, Размер: 1.45 ГБ, Здоровье: 0%

Anonymous

0
0|0

43
0

16 фев 2014, 13:06

Anonymous Перейти к последнему сообщению

В этой теме нет новых непрочитанных сообщений. Скачать торрент Мертвая тишина / Dead Silence (Джеймс Ван / James Wan) [2007 г., ужасы, триллер, HDRip]

в форуме Ужасы, Размер: 741.25 МБ, Здоровье: 0%

Anonymous

0
0|0

46
0

17 фев 2014, 11:47

Anonymous Перейти к последнему сообщению

В этой теме нет новых непрочитанных сообщений. Скачать торрент Джейсон Х / Jason X (Джеймс Исаак / James Isaac) [2001, США, Триллер, Ужасы, DVDRip]

в форуме Триллеры, Размер: 744.02 МБ, Здоровье: 0%

Anonymous

0
0|0

37
0

25 апр 2014, 08:53

Anonymous Перейти к последнему сообщению



Сейчас этот форум просматривают: нет зарегистрированных пользователей и гости: 1


Вы не можете начинать темы
Вы не можете отвечать на сообщения
Вы не можете редактировать свои сообщения
Вы не можете удалять свои сообщения
Вы не можете добавлять вложения

Перейти:  

!ВНИМАНИЕ!
 Ресурс не предоставляет электронные версии произведений, а занимается лишь коллекционированием и каталогизацией ссылок, присылаемых и публикуемых на форуме нашими читателями. Если вы являетесь правообладателем какого-либо представленного материала и не желаете чтобы ссылка на него находилась в нашем каталоге, свяжитесь с нами и мы незамедлительно удалим её. Файлы для обмена на трекере предоставлены пользователями сайта, и администрация не несёт ответственности за их содержание. Просьба не заливать файлы, защищенные авторскими правами, а также файлы нелегального содержания!