На всех торрентах на трекере установлена скидка на скачивание в размере 100 процентов(а).
 Возможность скачивания торрента НЕ зависит от ограничений при низком ратио, низком аплоаде, требуемом ратио или требуемом аплоаде.


Начать новую тему Ответить на тему
Статистика раздачи
Размер: 1.46 ГБ | Добавлен: 22 апр 2014, 11:41 | Скачали: 0
Сидеров: 0  [0 байт/сек]    Личеров: 0  [0 байт/сек]
Пред. тема | След. тема 

Автор
Сообщение

СообщениеДобавлено: 22 апр 2014, 11:41 

Королева Проклятых / Queen of the Damned
«Мать всех вампиров»
Страна: США, Австралия
Жанр: ужасы, фэнтези, музыка
Год выпуска: 2002
Продолжительность: 01:41:29

Перевод: Профессиональный (многоголосый закадровый) "Мост Видео"
Cубтитры: нет
Режиссер: Майкл Раймер / Michael Rymer

В ролях: Стюарт Таунсенд, Элайя, Маргерит Моро, Пол МакГэнн, Венсен Перес, Лина Улин и др.

Описание: Легендарный вампир Лестат восстал из темных глубин, чтобы стать кумиром миллионов в образе рок-звезды, чья жажда крови и дьявольская музыка пробудили к жизни другое существо, королеву всех вампиров, несущую смерть. Веками она ждала шанса вернуть себе трон империи зла. Ее зовут Акаша, Прародительница всех вампиров. Пришло ее время: явился тот, кого она ждала. Чарующая мрачная музыка Лестата покоряет весь мир и зажигает страсть во всесильной Акаше. Они могут вместе вечно править миром. Но этому может помешать другое чувство: любовь Лестата к смертной девушке...

Сэмпл: http://multi-up.com/791049

Качество видео: BDRip
Формат видео: AVI

Видео: 720x304 (2.37:1), 23.976 fps, XviD build 65 ~1605 kbps avg, 0.31 bit/pixel
Аудио: 48 kHz, AC3 Dolby Digital, 3/2 (L,C,R,l,r) + LFE ch, ~448 kbps
MediaInfo
Общее
Полное имя : F:\Queen.of.the.Damned.2002.BDRip.1400.avi
Формат : AVI
Формат/Информация : Audio Video Interleave
Размер файла : 1,46 Гбайт
Продолжительность : 1 ч. 41 м.
Общий поток : 2063 Кбит/сек
Программа кодирования : VirtualDubMod 1.5.10.3 | http://www.virtualdub-fr.org || (build 2550/release)
Библиотека кодирования : VirtualDubMod build 2550/release

Видео
Идентификатор : 0
Формат : MPEG-4 Visual
Профиль формата : Advanced Simple@L5
Параметр BVOP формата : 2
Параметр QPel формата : Нет
Параметр GMC формата : Без точки перехода
Параметр матрицы формата : Default (MPEG)
Идентификатор кодека : XVID
Идентификатор кодека/Подсказка : XviD
Продолжительность : 1 ч. 41 м.
Битрейт : 1606 Кбит/сек
Ширина : 720 пикселей
Высота : 304 пикселя
Соотношение сторон : 2,35:1
Частота кадров : 23,976 кадра/сек
Цветовое пространство : YUV
Субдискретизация насыщенности : 4:2:0
Битовая глубина : 8 бит
Тип развёртки : Прогрессивная
Метод сжатия : С потерями
Бит/(Пиксели*Кадры) : 0.306
Размер потока : 1,14 Гбайт (78%)
Библиотека кодирования : XviD 65

Аудио
Идентификатор : 1
Формат : AC-3
Формат/Информация : Audio Coding 3
Расширение режима : CM (complete main)
Параметр Endianness формата : Big
Идентификатор кодека : 2000
Продолжительность : 1 ч. 41 м.
Вид битрейта : Постоянный
Битрейт : 448 Кбит/сек
Каналы : 6 каналов
Расположение каналов : Front: L C R, Side: L R, LFE
Частота : 48,0 КГц
Битовая глубина : 16 бит
Метод сжатия : С потерями
Размер потока : 325 Мбайт (22%)
Выравнивание : Разделение по промежуткам
Продолжительность промежутка : 42 мс. (1,00 видеокадр)
Время предзагрузки промежутка : 500 мс.
Скриншоты
загрузка...
Правила, инструкции, FAQ!!!
Торрент  Добавлен [22 апр 2014, 11:41] Скачать торрент
Скачать торрент
[ Размер 15.19 КБ / Просмотров 7 ]

Статус  
 
Размер  1.46 ГБ
Приватный: Нет (DHT включён)
.torrent скачан  0
Как залить торрент? | Как скачать Torrent? | Как смотреть и слушать онлайн?  


     Отправить личное сообщение
   
Страница 1 из 1
Показать сообщения за:  Поле сортировки  
Начать новую тему Ответить на тему

   Похожие торренты   Автор   Ответы   Просмотры   Последнее сообщение 
В этой теме нет новых непрочитанных сообщений. Скачать торрент Проверен Снежная королева 2: Перезаморозка в 3Д / The Snow Queen: Magic Of The Ice Mirror 3D (Алексей Цицилин) [2014, льм, Фэнтези, Приключения, Семейный, BDrip, 1080p] OverUnder / Вертикальная стереопара

в форуме 3D Мультфильмы, Размер: 9.24 ГБ, Здоровье: 100%

Anonymous

0
5|1

10
0

07 сен 2016, 18:22

Anonymous Перейти к последнему сообщению

В этой теме нет новых непрочитанных сообщений. Скачать торрент Проверен Снежная королева 2: Перезаморозка в 3Д / The Snow Queen: Magic Of The Ice Mirror 3D (Алексей Цицилин) [2014, Мультфильм, Фэнтези, Приключения, Семейный, BDrip-AVC] iTunes, Half OverUnder / Вертикальная анаморфная стереопара

в форуме 3D Мультфильмы, Размер: 8.07 ГБ, Здоровье: 100%

Anonymous

0
21|8

12
0

07 сен 2016, 18:20

Anonymous Перейти к последнему сообщению

В этой теме нет новых непрочитанных сообщений. Скачать торрент Хроники Нарнии: Покоритель Зари / The Chronicles of Narnia: The Voyage of the Dawn Treader (Майкл Эптид / Michael Apted) [2010, США, фэнтези, приключения, семейный, BDRip-AVC] Dub

в форуме 720p | 1080p, Размер: 2.9 ГБ, Здоровье: 100%

Anonymous

0
34|11

31
0

17 фев 2014, 08:04

Anonymous Перейти к последнему сообщению

В этой теме нет новых непрочитанных сообщений. Скачать торрент Ангел Света / Габриель / Gabriel (Шэйн Эббес / Shane Abbess) [2007, Австралия, ужасы, фэнтези, боевик, триллер, DVDRip] MVO Sub rus + original eng

в форуме Ужасы, Размер: 2.17 ГБ, Здоровье: 0%

Anonymous

0
0|0

39
0

13 фев 2014, 11:39

Anonymous Перейти к последнему сообщению

В этой теме нет новых непрочитанных сообщений. Скачать торрент Соломон Кейн / Solomon Kane (Майкл Дж. Бассетт / Michael J. Bassett) [2009, Франция, Великобритания, Чехия, боевик, фэнтези, приключения, BDRip-AVC] DUB + AVO (Ю. Немахов) + DUB (Ukr) + original eng + Subs (rus, ukr, eng)

в форуме Боевики, Размер: 3.22 ГБ, Здоровье: 100%

Anonymous

0
32|11

32
0

12 фев 2014, 08:18

Anonymous Перейти к последнему сообщению



Сейчас этот форум просматривают: нет зарегистрированных пользователей и гости: 2


Вы не можете начинать темы
Вы не можете отвечать на сообщения
Вы не можете редактировать свои сообщения
Вы не можете удалять свои сообщения
Вы не можете добавлять вложения

Перейти:  

!ВНИМАНИЕ!
 Ресурс не предоставляет электронные версии произведений, а занимается лишь коллекционированием и каталогизацией ссылок, присылаемых и публикуемых на форуме нашими читателями. Если вы являетесь правообладателем какого-либо представленного материала и не желаете чтобы ссылка на него находилась в нашем каталоге, свяжитесь с нами и мы незамедлительно удалим её. Файлы для обмена на трекере предоставлены пользователями сайта, и администрация не несёт ответственности за их содержание. Просьба не заливать файлы, защищенные авторскими правами, а также файлы нелегального содержания!